<?xml version="1.0" standalone="no"?>
<!DOCTYPE svg PUBLIC "-//W3C//DTD SVG 1.1//EN" "http://www.w3.org/Graphics/SVG/1.1/DTD/svg11.dtd" >
<svg xmlns="http://www.w3.org/2000/svg" xmlns:xlink="http://www.w3.org/1999/xlink" version="1.1">
<metadata>
Created by FontForge 20170910 at Fri Sep  7 15:55:45 2018
 By Jimmy Wärting
Copyright 2018 The KoHo Project Authors (https://github.com/cadsondemak/Koho)
</metadata>
<defs>
<font id="KoHo-Medium" horiz-adv-x="0" >
  <font-face 
    font-family="KoHo Medium"
    font-weight="500"
    font-stretch="normal"
    units-per-em="1000"
    panose-1="0 0 6 0 0 0 0 0 0 0"
    ascent="800"
    descent="-200"
    x-height="470"
    cap-height="700"
    bbox="-631 -467 1275 1152"
    underline-thickness="50"
    underline-position="-100"
    unicode-range="U+000D-FB02"
  />
<missing-glyph horiz-adv-x="719" 
d="M91 999h536v-999h-536v999zM578 50v899h-439v-899h439z" />
    <glyph glyph-name="fi" unicode="fi" horiz-adv-x="541" 
d="M381.5 34.5q-14.5 25.5 -14.5 70.5v296h-197v-401h-88v540q0 88 49 135.5t140 47.5h34v-69h-34q-49 0 -75 -29.5t-26 -84.5v-70h285v-365q0 -21 7.5 -34.5t28.5 -29.5l-58 -52q-37 20 -51.5 45.5zM371.5 578.5q-16.5 16.5 -16.5 39.5t16.5 39.5t39.5 16.5t39.5 -16.5
t16.5 -39.5t-16.5 -39.5t-39.5 -16.5t-39.5 16.5z" />
    <glyph glyph-name="fl" unicode="fl" horiz-adv-x="554" 
d="M131 675.5q49 47.5 140 47.5h34v-69h-34q-49 0 -75 -29.5t-26 -84.5v-70h135v-69h-135v-401h-88v540q0 88 49 135.5zM480.5 70.5q7.5 -13.5 28.5 -29.5l-58 -52q-37 20 -51.5 45.5t-14.5 70.5v502q0 21 -8 34.5t-29 29.5l58 52q38 -20 52.5 -45.5t14.5 -70.5v-502
q0 -21 7.5 -34.5z" />
    <glyph glyph-name="uni0E240E45" unicode="&#xe24;&#xe45;" horiz-adv-x="944" 
d="M815.5 520q52.5 -47 52.5 -132v-638h-87v638q0 52 -30 81t-83 29q-45 0 -77 -15t-67 -54q15 -46 15 -108v-571h-86v571q0 89 -38 133t-117 44l-126 -2l-45 -1l101 -94v-45q-39 -16 -57.5 -46t-18.5 -81v-8q17 9 35 9q37 0 59.5 -27t22.5 -71q0 -62 -31.5 -102t-80.5 -40
q-41 0 -65 26t-24 71v142q0 116 94 157v4l-110 107v70h246q130 0 189 -69q37 36 80.5 52.5t100.5 16.5q95 0 147.5 -47zM146.5 155.5q-15.5 -27.5 -15.5 -69.5q0 -21 9 -35t22 -14q24 0 39.5 27t15.5 68q0 22 -8.5 36.5t-22.5 14.5q-24 0 -39.5 -27.5z" />
    <glyph glyph-name="uni0E260E45" unicode="&#xe26;&#xe45;" horiz-adv-x="974" 
d="M844.5 520q52.5 -47 52.5 -132v-638h-86v638q0 52 -30 81t-86 29q-43 0 -76 -16t-66 -55q13 -39 13 -95v-581h-86v581q0 69 -35 117.5t-140 48.5q-90 0 -173 -3l104 -96v-312q0 -45 -24 -71t-66 -26q-48 0 -79.5 40t-31.5 102q0 44 22 71t59 27q19 0 36 -9v181l-97 95v70
h256q142 0 204 -71q38 38 80.5 54.5t99.5 16.5q97 0 149.5 -47zM164 51q9 14 9 35q0 42 -15.5 69.5t-39.5 27.5q-14 0 -22.5 -14.5t-8.5 -36.5q0 -41 15.5 -68t39.5 -27q13 0 22 14z" />
    <glyph glyph-name=".notdef" horiz-adv-x="719" 
d="M91 999h536v-999h-536v999zM578 50v899h-439v-899h439z" />
    <glyph glyph-name="NULL" 
 />
    <glyph glyph-name="NULL" 
 />
    <glyph glyph-name="nonmarkingreturn" unicode="&#xd;" horiz-adv-x="259" 
 />
    <glyph glyph-name="space" unicode=" " horiz-adv-x="259" 
 />
    <glyph glyph-name="A" unicode="A" horiz-adv-x="669" 
d="M486 204h-302l-62 -204h-95l177 576q16 52 33 81t40 41.5t57 12.5q50 0 79 -29.5t52 -105.5l178 -576h-96zM464 277l-90 298q-8 27 -17 37.5t-23 10.5q-13 0 -21.5 -10.5t-16.5 -37.5l-90 -298h258z" />
    <glyph glyph-name="Aacute" unicode="&#xc1;" horiz-adv-x="669" 
d="M486 204h-302l-62 -204h-95l177 576q16 52 33 81t40 41.5t57 12.5q50 0 79 -29.5t52 -105.5l178 -576h-96zM464 277l-90 298q-8 27 -17 37.5t-23 10.5q-13 0 -21.5 -10.5t-16.5 -37.5l-90 -298h258zM375 923h95l-103 -149h-72z" />
    <glyph glyph-name="Abreve" unicode="&#x102;" horiz-adv-x="669" 
d="M486 204h-302l-62 -204h-95l177 576q16 52 33 81t40 41.5t57 12.5q50 0 79 -29.5t52 -105.5l178 -576h-96zM464 277l-90 298q-8 27 -17 37.5t-23 10.5q-13 0 -21.5 -10.5t-16.5 -37.5l-90 -298h258zM222.5 808q-41.5 41 -41.5 109h64q3 -40 26 -63t63 -23t63.5 23
t25.5 63h64q0 -68 -41.5 -109t-111.5 -41t-111.5 41z" />
    <glyph glyph-name="uni1EAE" unicode="&#x1eae;" horiz-adv-x="669" 
d="M486 204h-302l-62 -204h-95l177 576q16 52 33 81t40 41.5t57 12.5q50 0 79 -29.5t52 -105.5l178 -576h-96zM464 277l-90 298q-8 27 -17 37.5t-23 10.5q-13 0 -21.5 -10.5t-16.5 -37.5l-90 -298h258zM360 1078h91l-86 -116h-68zM222.5 808q-41.5 41 -41.5 109h64
q3 -40 26 -63t63 -23t63.5 23t25.5 63h64q0 -68 -41.5 -109t-111.5 -41t-111.5 41z" />
    <glyph glyph-name="uni1EB6" unicode="&#x1eb6;" horiz-adv-x="669" 
d="M486 204h-302l-62 -204h-95l177 576q16 52 33 81t40 41.5t57 12.5q50 0 79 -29.5t52 -105.5l178 -576h-96zM464 277l-90 298q-8 27 -17 37.5t-23 10.5q-13 0 -21.5 -10.5t-16.5 -37.5l-90 -298h258zM295 -156.5q-16 16.5 -16 39.5t16 39t39 16q22 0 38.5 -16.5
t16.5 -38.5q0 -23 -16 -39.5t-39 -16.5t-39 16.5zM222.5 808q-41.5 41 -41.5 109h64q3 -40 26 -63t63 -23t63.5 23t25.5 63h64q0 -68 -41.5 -109t-111.5 -41t-111.5 41z" />
    <glyph glyph-name="uni1EB0" unicode="&#x1eb0;" horiz-adv-x="669" 
d="M486 204h-302l-62 -204h-95l177 576q16 52 33 81t40 41.5t57 12.5q50 0 79 -29.5t52 -105.5l178 -576h-96zM464 277l-90 298q-8 27 -17 37.5t-23 10.5q-13 0 -21.5 -10.5t-16.5 -37.5l-90 -298h258zM215 1078h91l63 -116h-68zM222.5 808q-41.5 41 -41.5 109h64
q3 -40 26 -63t63 -23t63.5 23t25.5 63h64q0 -68 -41.5 -109t-111.5 -41t-111.5 41z" />
    <glyph glyph-name="uni1EB2" unicode="&#x1eb2;" horiz-adv-x="669" 
d="M486 204h-302l-62 -204h-95l177 576q16 52 33 81t40 41.5t57 12.5q50 0 79 -29.5t52 -105.5l178 -576h-96zM464 277l-90 298q-8 27 -17 37.5t-23 10.5q-13 0 -21.5 -10.5t-16.5 -37.5l-90 -298h258zM287 1056l-13 45q30 13 70 13q43 0 67.5 -17.5t24.5 -54.5
q0 -31 -18.5 -47t-51.5 -24v-34h-59v63q39 5 55 12.5t16 23.5q0 18 -10.5 24t-31.5 6q-17 0 -49 -10zM487 917q0 -68 -41.5 -109t-111.5 -41t-111.5 41t-41.5 109h64q2 -40 25.5 -63t63.5 -23t63.5 23t25.5 63h64z" />
    <glyph glyph-name="uni1EB4" unicode="&#x1eb4;" horiz-adv-x="669" 
d="M486 204h-302l-62 -204h-95l177 576q16 52 33 81t40 41.5t57 12.5q50 0 79 -29.5t52 -105.5l178 -576h-96zM464 277l-90 298q-8 27 -17 37.5t-23 10.5q-13 0 -21.5 -10.5t-16.5 -37.5l-90 -298h258zM210 1037q24 30 68 30q18 0 33 -5.5t37 -16.5q30 -17 46 -17
q15 0 23 10.5t12 33.5h53q-3 -43 -26.5 -73t-61.5 -30q-19 0 -34.5 5.5t-35.5 16.5l-12 6t-18.5 7.5t-15.5 2.5q-17 0 -26 -10.5t-14 -34.5h-54q2 45 26 75zM222.5 808q-41.5 41 -41.5 109h64q3 -40 26 -63t63 -23t63.5 23t25.5 63h64q0 -68 -41.5 -109t-111.5 -41
t-111.5 41z" />
    <glyph glyph-name="uni01CD" unicode="&#x1cd;" horiz-adv-x="669" 
d="M486 204h-302l-62 -204h-95l177 576q16 52 33 81t40 41.5t57 12.5q50 0 79 -29.5t52 -105.5l178 -576h-96zM464 277l-90 298q-8 27 -17 37.5t-23 10.5q-13 0 -21.5 -10.5t-16.5 -37.5l-90 -298h258zM240 859.5q-37 44.5 -66 67.5h82q22 -18 45 -44t33 -46q9 19 32 45.5
t45 44.5h81q-28 -22 -64.5 -66.5t-59.5 -86.5h-69q-22 41 -59 85.5z" />
    <glyph glyph-name="Acircumflex" unicode="&#xc2;" horiz-adv-x="669" 
d="M486 204h-302l-62 -204h-95l177 576q16 52 33 81t40 41.5t57 12.5q50 0 79 -29.5t52 -105.5l178 -576h-96zM464 277l-90 298q-8 27 -17 37.5t-23 10.5q-13 0 -21.5 -10.5t-16.5 -37.5l-90 -298h258zM240 840.5q37 44.5 59 86.5h69q23 -43 59.5 -87t64.5 -66h-81
q-22 17 -44.5 43t-32.5 45q-10 -19 -33.5 -45t-44.5 -43h-82q29 22 66 66.5z" />
    <glyph glyph-name="uni1EA4" unicode="&#x1ea4;" horiz-adv-x="669" 
d="M486 204h-302l-62 -204h-95l177 576q16 52 33 81t40 41.5t57 12.5q50 0 79 -29.5t52 -105.5l178 -576h-96zM464 277l-90 298q-8 27 -17 37.5t-23 10.5q-13 0 -21.5 -10.5t-16.5 -37.5l-90 -298h258zM505 983h89l-84 -116h-68zM240 840.5q37 44.5 59 86.5h69
q23 -43 59.5 -87t64.5 -66h-81q-22 17 -44.5 43t-32.5 45q-10 -19 -33.5 -45t-44.5 -43h-82q29 22 66 66.5z" />
    <glyph glyph-name="uni1EAC" unicode="&#x1eac;" horiz-adv-x="669" 
d="M486 204h-302l-62 -204h-95l177 576q16 52 33 81t40 41.5t57 12.5q50 0 79 -29.5t52 -105.5l178 -576h-96zM464 277l-90 298q-8 27 -17 37.5t-23 10.5q-13 0 -21.5 -10.5t-16.5 -37.5l-90 -298h258zM295 -156.5q-16 16.5 -16 39.5t16 39t39 16q22 0 38.5 -16.5
t16.5 -38.5q0 -23 -16 -39.5t-39 -16.5t-39 16.5zM240 840.5q37 44.5 59 86.5h69q23 -43 59.5 -87t64.5 -66h-81q-22 17 -44.5 43t-32.5 45q-10 -19 -33.5 -45t-44.5 -43h-82q29 22 66 66.5z" />
    <glyph glyph-name="uni1EA6" unicode="&#x1ea6;" horiz-adv-x="669" 
d="M486 204h-302l-62 -204h-95l177 576q16 52 33 81t40 41.5t57 12.5q50 0 79 -29.5t52 -105.5l178 -576h-96zM464 277l-90 298q-8 27 -17 37.5t-23 10.5q-13 0 -21.5 -10.5t-16.5 -37.5l-90 -298h258zM410 983h89l63 -116h-68zM240 840.5q37 44.5 59 86.5h69
q23 -43 59.5 -87t64.5 -66h-81q-22 17 -44.5 43t-32.5 45q-10 -19 -33.5 -45t-44.5 -43h-82q29 22 66 66.5z" />
    <glyph glyph-name="uni1EA8" unicode="&#x1ea8;" horiz-adv-x="669" 
d="M486 204h-302l-62 -204h-95l177 576q16 52 33 81t40 41.5t57 12.5q50 0 79 -29.5t52 -105.5l178 -576h-96zM464 277l-90 298q-8 27 -17 37.5t-23 10.5q-13 0 -21.5 -10.5t-16.5 -37.5l-90 -298h258zM559 922.5q-18 -16.5 -51 -24.5v-34h-59v64q39 4 55 11.5t16 23.5
q0 18 -10 24t-32 6q-24 0 -49 -10l-14 45q33 14 71 14q42 0 66.5 -17.5t24.5 -54.5q0 -31 -18 -47.5zM427.5 840q36.5 -44 64.5 -66h-81q-22 17 -44.5 43t-32.5 45q-10 -19 -33.5 -45t-44.5 -43h-82q29 22 66 66.5t59 86.5h69q23 -43 59.5 -87z" />
    <glyph glyph-name="uni1EAA" unicode="&#x1eaa;" horiz-adv-x="669" 
d="M486 204h-302l-62 -204h-95l177 576q16 52 33 81t40 41.5t57 12.5q50 0 79 -29.5t52 -105.5l178 -576h-96zM464 277l-90 298q-8 27 -17 37.5t-23 10.5q-13 0 -21.5 -10.5t-16.5 -37.5l-90 -298h258zM210 1031.5q24 29.5 68 29.5q18 0 33 -5.5t37 -16.5q12 -6 24 -11
t22 -5q15 0 23 10.5t12 33.5h53q-3 -43 -26.5 -73t-61.5 -30q-19 0 -34.5 5.5t-35.5 16.5l-12 6t-18.5 7.5t-15.5 2.5q-17 0 -26 -10.5t-14 -34.5h-54q2 45 26 74.5zM240 840.5q37 44.5 59 86.5h69q23 -43 59.5 -87t64.5 -66h-81q-22 17 -44.5 43t-32.5 45
q-10 -19 -33.5 -45t-44.5 -43h-82q29 22 66 66.5z" />
    <glyph glyph-name="Adieresis" unicode="&#xc4;" horiz-adv-x="669" 
d="M486 204h-302l-62 -204h-95l177 576q16 52 33 81t40 41.5t57 12.5q50 0 79 -29.5t52 -105.5l178 -576h-96zM464 277l-90 298q-8 27 -17 37.5t-23 10.5q-13 0 -21.5 -10.5t-16.5 -37.5l-90 -298h258zM215.5 785q-14.5 15 -14.5 35t14.5 34.5t34.5 14.5q19 0 34 -14.5
t15 -34.5t-14.5 -35t-34.5 -15t-34.5 15zM383.5 785q-14.5 15 -14.5 35t14.5 34.5t35.5 14.5q19 0 34 -14.5t15 -34.5t-14.5 -35t-34.5 -15q-21 0 -35.5 15z" />
    <glyph glyph-name="uni1EA0" unicode="&#x1ea0;" horiz-adv-x="669" 
d="M486 204h-302l-62 -204h-95l177 576q16 52 33 81t40 41.5t57 12.5q50 0 79 -29.5t52 -105.5l178 -576h-96zM464 277l-90 298q-8 27 -17 37.5t-23 10.5q-13 0 -21.5 -10.5t-16.5 -37.5l-90 -298h258zM295 -156.5q-16 16.5 -16 39.5t16 39t39 16q22 0 38.5 -16.5
t16.5 -38.5q0 -23 -16 -39.5t-39 -16.5t-39 16.5z" />
    <glyph glyph-name="Agrave" unicode="&#xc0;" horiz-adv-x="669" 
d="M486 204h-302l-62 -204h-95l177 576q16 52 33 81t40 41.5t57 12.5q50 0 79 -29.5t52 -105.5l178 -576h-96zM464 277l-90 298q-8 27 -17 37.5t-23 10.5q-13 0 -21.5 -10.5t-16.5 -37.5l-90 -298h258zM194 923h95l81 -149h-73z" />
    <glyph glyph-name="uni1EA2" unicode="&#x1ea2;" horiz-adv-x="669" 
d="M486 204h-302l-62 -204h-95l177 576q16 52 33 81t40 41.5t57 12.5q50 0 79 -29.5t52 -105.5l178 -576h-96zM464 277l-90 298q-8 27 -17 37.5t-23 10.5q-13 0 -21.5 -10.5t-16.5 -37.5l-90 -298h258zM363 811v-37h-67v70q44 4 62 14.5t18 29.5q0 20 -12 28t-35 8
q-26 0 -54 -10l-15 49q36 17 78 17q50 0 79.5 -21.5t29.5 -64.5q0 -65 -84 -83z" />
    <glyph glyph-name="Amacron" unicode="&#x100;" horiz-adv-x="669" 
d="M486 204h-302l-62 -204h-95l177 576q16 52 33 81t40 41.5t57 12.5q50 0 79 -29.5t52 -105.5l178 -576h-96zM464 277l-90 298q-8 27 -17 37.5t-23 10.5q-13 0 -21.5 -10.5t-16.5 -37.5l-90 -298h258zM180 856h307v-64h-307v64z" />
    <glyph glyph-name="Aogonek" unicode="&#x104;" horiz-adv-x="669" 
d="M708 -189q-34 -22 -78 -22q-64 0 -91.5 29t-27.5 64q0 65 55 118h-19l-61 204h-302l-62 -204h-95l177 576q16 52 33 81t40 41.5t57 12.5q50 0 79 -29.5t52 -105.5l178 -576h-13q-43 -57 -43 -105q0 -24 14 -35.5t37 -11.5q21 0 54 14zM464 277l-90 298q-8 27 -17 37.5
t-23 10.5q-13 0 -21.5 -10.5t-16.5 -37.5l-90 -298h258z" />
    <glyph glyph-name="Aring" unicode="&#xc5;" horiz-adv-x="669" 
d="M486 204h-302l-62 -204h-95l177 576q16 52 33 81t40 41.5t57 12.5q50 0 79 -29.5t52 -105.5l178 -576h-96zM464 277l-90 298q-8 27 -17 37.5t-23 10.5q-13 0 -21.5 -10.5t-16.5 -37.5l-90 -298h258zM259.5 787q-27.5 26 -27.5 70q0 43 27.5 69t74.5 26t74.5 -26t27.5 -69
q0 -44 -27.5 -70t-74.5 -26t-74.5 26zM370 820.5q13 13.5 13 36.5t-13 36t-36 13t-36 -13t-13 -36t13 -36.5t36 -13.5t36 13.5z" />
    <glyph glyph-name="Aringacute" unicode="&#x1fa;" horiz-adv-x="669" 
d="M360 1000h-62l69 119h82zM260 787q-28 26 -28 70q0 43 28 69t74 26q47 0 74.5 -26t27.5 -69q0 -44 -27.5 -70t-74.5 -26q-46 0 -74 26zM298.5 893q-13.5 -13 -13.5 -36t13 -36.5t36 -13.5t36.5 13.5t13.5 36.5t-13.5 36t-36.5 13q-22 0 -35.5 -13zM486 204h-302l-62 -204
h-95l177 576q16 52 33 81t40 41.5t57 12.5q50 0 79 -29.5t52 -105.5l178 -576h-96zM464 277l-90 298q-8 27 -17 37.5t-23 10.5q-13 0 -21.5 -10.5t-16.5 -37.5l-90 -298h258z" />
    <glyph glyph-name="Atilde" unicode="&#xc3;" horiz-adv-x="669" 
d="M486 204h-302l-62 -204h-95l177 576q16 52 33 81t40 41.5t57 12.5q50 0 79 -29.5t52 -105.5l178 -576h-96zM464 277l-90 298q-8 27 -17 37.5t-23 10.5q-13 0 -21.5 -10.5t-16.5 -37.5l-90 -298h258zM201 862.5q25 33.5 73 33.5q20 0 37 -6.5t39 -18.5q18 -9 28.5 -13.5
t21.5 -4.5q16 0 24 11.5t12 36.5h58q-3 -49 -27.5 -82.5t-66.5 -33.5q-21 0 -38 6.5t-38 18.5q-4 2 -14.5 7.5t-19 8t-16.5 2.5q-18 0 -27.5 -11.5t-14.5 -38.5h-58q2 51 27 84.5z" />
    <glyph glyph-name="AE" unicode="&#xc6;" horiz-adv-x="1037" 
d="M995 75v-75h-244q-120 0 -177 51t-59 153h-274l-109 -204h-105l301 565q29 55 51.5 83t47 40t61.5 12q66 0 96 -45q59 45 167 45h239v-75h-239q-141 0 -141 -137v-100h332v-76h-332v-100q0 -70 34 -103.5t107 -33.5h244zM280 277h235v287q0 48 -32 48q-15 0 -25 -10
t-25 -38z" />
    <glyph glyph-name="AEacute" unicode="&#x1fc;" horiz-adv-x="1037" 
d="M995 75v-75h-244q-120 0 -177 51t-59 153h-274l-109 -204h-105l301 565q29 55 51.5 83t47 40t61.5 12q66 0 96 -45q59 45 167 45h239v-75h-239q-141 0 -141 -137v-100h332v-76h-332v-100q0 -70 34 -103.5t107 -33.5h244zM280 277h235v287q0 48 -32 48q-15 0 -25 -10
t-25 -38zM563 923h95l-103 -149h-72z" />
    <glyph glyph-name="B" unicode="B" horiz-adv-x="674" 
d="M92 700h305q95 0 149.5 -48t54.5 -130q0 -55 -30.5 -96.5t-86.5 -56.5q65 -14 101.5 -60.5t36.5 -116.5q0 -89 -60 -140.5t-163 -51.5h-307v700zM392 404q51 0 82.5 30.5t31.5 80.5t-31 80t-83 30h-205v-221h205zM377 75q74 0 112 32.5t38 94.5t-38 94.5t-112 32.5h-190
v-254h190z" />
    <glyph glyph-name="C" unicode="C" horiz-adv-x="634" 
d="M135 53.5q-73 64.5 -73 190.5v213q0 124 72 189t207 65q91 0 153 -29t101 -89l-68 -48q-34 47 -77 69t-107 22q-186 0 -186 -179v-213q0 -180 190 -180q68 0 112 23t77 72l67 -51q-46 -63 -104.5 -91t-151.5 -28q-139 0 -212 64.5z" />
    <glyph glyph-name="Cacute" unicode="&#x106;" horiz-adv-x="634" 
d="M135 53.5q-73 64.5 -73 190.5v213q0 124 72 189t207 65q91 0 153 -29t101 -89l-68 -48q-34 47 -77 69t-107 22q-186 0 -186 -179v-213q0 -180 190 -180q68 0 112 23t77 72l67 -51q-46 -63 -104.5 -91t-151.5 -28q-139 0 -212 64.5zM382 923h95l-103 -149h-72z" />
    <glyph glyph-name="Ccaron" unicode="&#x10c;" horiz-adv-x="634" 
d="M135 53.5q-73 64.5 -73 190.5v213q0 124 72 189t207 65q91 0 153 -29t101 -89l-68 -48q-34 47 -77 69t-107 22q-186 0 -186 -179v-213q0 -180 190 -180q68 0 112 23t77 72l67 -51q-46 -63 -104.5 -91t-151.5 -28q-139 0 -212 64.5zM247 859.5q-37 44.5 -66 67.5h82
q22 -18 45 -44t33 -46q9 19 32 45.5t45 44.5h81q-28 -22 -64.5 -66.5t-59.5 -86.5h-69q-22 41 -59 85.5z" />
    <glyph glyph-name="Ccedilla" unicode="&#xc7;" horiz-adv-x="634" 
d="M506.5 21q-53.5 -28 -134.5 -31l-10 -33q42 -3 63 -24t21 -57q0 -85 -120 -85q-56 0 -95 21l15 50q42 -17 71 -17q30 0 44 7.5t14 23.5t-11.5 25t-44.5 9q-8 0 -32 -2l20 82q-120 9 -182.5 73.5t-62.5 180.5v213q0 124 72 189t207 65q91 0 153 -29t101 -89l-68 -48
q-34 47 -77 69t-107 22q-186 0 -186 -179v-213q0 -180 190 -180q68 0 112 23t77 72l67 -51q-43 -59 -96.5 -87z" />
    <glyph glyph-name="Ccircumflex" unicode="&#x108;" horiz-adv-x="634" 
d="M135 53.5q-73 64.5 -73 190.5v213q0 124 72 189t207 65q91 0 153 -29t101 -89l-68 -48q-34 47 -77 69t-107 22q-186 0 -186 -179v-213q0 -180 190 -180q68 0 112 23t77 72l67 -51q-46 -63 -104.5 -91t-151.5 -28q-139 0 -212 64.5zM247 840.5q37 44.5 59 86.5h69
q23 -43 59.5 -87t64.5 -66h-81q-22 17 -44.5 43t-32.5 45q-10 -19 -33.5 -45t-44.5 -43h-82q29 22 66 66.5z" />
    <glyph glyph-name="Cdotaccent" unicode="&#x10a;" horiz-adv-x="634" 
d="M135 53.5q-73 64.5 -73 190.5v213q0 124 72 189t207 65q91 0 153 -29t101 -89l-68 -48q-34 47 -77 69t-107 22q-186 0 -186 -179v-213q0 -180 190 -180q68 0 112 23t77 72l67 -51q-46 -63 -104.5 -91t-151.5 -28q-139 0 -212 64.5zM302 786.5q-16 16.5 -16 39.5t16 39.5
t39 16.5q22 0 38.5 -16.5t16.5 -39.5t-16.5 -39.5t-38.5 -16.5q-23 0 -39 16.5z" />
    <glyph glyph-name="D" unicode="D" horiz-adv-x="704" 
d="M92 700h252q113 0 179 -34t95.5 -110t29.5 -206q0 -131 -29.5 -206.5t-95.5 -109.5t-179 -34h-252v700zM344 75q77 0 122.5 27t66 86.5t20.5 160.5q0 102 -20.5 162t-66 87t-122.5 27h-157v-550h157z" />
    <glyph glyph-name="Eth" unicode="&#xd0;" horiz-adv-x="704" 
d="M523 666q66 -34 95.5 -110t29.5 -206q0 -131 -29.5 -206.5t-95.5 -109.5t-179 -34h-252v318h-83v67h83v315h252q113 0 179 -34zM466.5 102q45.5 27 66 86.5t20.5 160.5q0 102 -20.5 162t-66 87t-122.5 27h-157v-240h192v-67h-192v-243h157q77 0 122.5 27z" />
    <glyph glyph-name="Dcaron" unicode="&#x10e;" horiz-adv-x="704" 
d="M92 700h252q113 0 179 -34t95.5 -110t29.5 -206q0 -131 -29.5 -206.5t-95.5 -109.5t-179 -34h-252v700zM344 75q77 0 122.5 27t66 86.5t20.5 160.5q0 102 -20.5 162t-66 87t-122.5 27h-157v-550h157zM262 859.5q-37 44.5 -66 67.5h82q22 -18 45 -44t33 -46q9 19 32 45.5
t45 44.5h81q-28 -22 -64.5 -66.5t-59.5 -86.5h-69q-22 41 -59 85.5z" />
    <glyph glyph-name="Dcroat" unicode="&#x110;" horiz-adv-x="704" 
d="M523 666q66 -34 95.5 -110t29.5 -206q0 -131 -29.5 -206.5t-95.5 -109.5t-179 -34h-252v318h-83v67h83v315h252q113 0 179 -34zM466.5 102q45.5 27 66 86.5t20.5 160.5q0 102 -20.5 162t-66 87t-122.5 27h-157v-240h192v-67h-192v-243h157q77 0 122.5 27z" />
    <glyph glyph-name="uni1E0C" unicode="&#x1e0c;" horiz-adv-x="704" 
d="M92 700h252q113 0 179 -34t95.5 -110t29.5 -206q0 -131 -29.5 -206.5t-95.5 -109.5t-179 -34h-252v700zM344 75q77 0 122.5 27t66 86.5t20.5 160.5q0 102 -20.5 162t-66 87t-122.5 27h-157v-550h157zM317 -156.5q-16 16.5 -16 39.5t16 39t39 16q22 0 38.5 -16.5
t16.5 -38.5q0 -23 -16 -39.5t-39 -16.5t-39 16.5z" />
    <glyph glyph-name="uni1E0E" unicode="&#x1e0e;" horiz-adv-x="704" 
d="M92 700h252q113 0 179 -34t95.5 -110t29.5 -206q0 -131 -29.5 -206.5t-95.5 -109.5t-179 -34h-252v700zM344 75q77 0 122.5 27t66 86.5t20.5 160.5q0 102 -20.5 162t-66 87t-122.5 27h-157v-550h157zM202 -78h307v-65h-307v65z" />
    <glyph glyph-name="E" unicode="E" horiz-adv-x="581" 
d="M117 53q-57 53 -57 159v276q0 106 57 159t179 53h239v-75h-239q-73 0 -107 -33.5t-34 -103.5v-100h331v-76h-331v-100q0 -70 34 -103.5t107 -33.5h243v-75h-243q-122 0 -179 53z" />
    <glyph glyph-name="Eacute" unicode="&#xc9;" horiz-adv-x="581" 
d="M117 53q-57 53 -57 159v276q0 106 57 159t179 53h239v-75h-239q-73 0 -107 -33.5t-34 -103.5v-100h331v-76h-331v-100q0 -70 34 -103.5t107 -33.5h243v-75h-243q-122 0 -179 53zM378 923h95l-103 -149h-72z" />
    <glyph glyph-name="Ebreve" unicode="&#x114;" horiz-adv-x="581" 
d="M117 53q-57 53 -57 159v276q0 106 57 159t179 53h239v-75h-239q-73 0 -107 -33.5t-34 -103.5v-100h331v-76h-331v-100q0 -70 34 -103.5t107 -33.5h243v-75h-243q-122 0 -179 53zM225.5 808q-41.5 41 -41.5 109h64q3 -40 26 -63t63 -23t63.5 23t25.5 63h64
q0 -68 -41.5 -109t-111.5 -41t-111.5 41z" />
    <glyph glyph-name="Ecaron" unicode="&#x11a;" horiz-adv-x="581" 
d="M117 53q-57 53 -57 159v276q0 106 57 159t179 53h239v-75h-239q-73 0 -107 -33.5t-34 -103.5v-100h331v-76h-331v-100q0 -70 34 -103.5t107 -33.5h243v-75h-243q-122 0 -179 53zM243 859.5q-37 44.5 -66 67.5h82q22 -18 45 -44t33 -46q9 19 32 45.5t45 44.5h81
q-28 -22 -64.5 -66.5t-59.5 -86.5h-69q-22 41 -59 85.5z" />
    <glyph glyph-name="Ecircumflex" unicode="&#xca;" horiz-adv-x="581" 
d="M117 53q-57 53 -57 159v276q0 106 57 159t179 53h239v-75h-239q-73 0 -107 -33.5t-34 -103.5v-100h331v-76h-331v-100q0 -70 34 -103.5t107 -33.5h243v-75h-243q-122 0 -179 53zM243 840.5q37 44.5 59 86.5h69q23 -43 59.5 -87t64.5 -66h-81q-22 17 -44.5 43t-32.5 45
q-10 -19 -33.5 -45t-44.5 -43h-82q29 22 66 66.5z" />
    <glyph glyph-name="uni1EBE" unicode="&#x1ebe;" horiz-adv-x="581" 
d="M117 53q-57 53 -57 159v276q0 106 57 159t179 53h239v-75h-239q-73 0 -107 -33.5t-34 -103.5v-100h331v-76h-331v-100q0 -70 34 -103.5t107 -33.5h243v-75h-243q-122 0 -179 53zM508 983h89l-84 -116h-68zM243 840.5q37 44.5 59 86.5h69q23 -43 59.5 -87t64.5 -66h-81
q-22 17 -44.5 43t-32.5 45q-10 -19 -33.5 -45t-44.5 -43h-82q29 22 66 66.5z" />
    <glyph glyph-name="uni1EC6" unicode="&#x1ec6;" horiz-adv-x="581" 
d="M117 53q-57 53 -57 159v276q0 106 57 159t179 53h239v-75h-239q-73 0 -107 -33.5t-34 -103.5v-100h331v-76h-331v-100q0 -70 34 -103.5t107 -33.5h243v-75h-243q-122 0 -179 53zM308 -156.5q-16 16.5 -16 39.5t16 39t39 16q22 0 38.5 -16.5t16.5 -38.5q0 -23 -16 -39.5
t-39 -16.5t-39 16.5zM243 840.5q37 44.5 59 86.5h69q23 -43 59.5 -87t64.5 -66h-81q-22 17 -44.5 43t-32.5 45q-10 -19 -33.5 -45t-44.5 -43h-82q29 22 66 66.5z" />
    <glyph glyph-name="uni1EC0" unicode="&#x1ec0;" horiz-adv-x="581" 
d="M117 53q-57 53 -57 159v276q0 106 57 159t179 53h239v-75h-239q-73 0 -107 -33.5t-34 -103.5v-100h331v-76h-331v-100q0 -70 34 -103.5t107 -33.5h243v-75h-243q-122 0 -179 53zM413 983h89l63 -116h-68zM243 840.5q37 44.5 59 86.5h69q23 -43 59.5 -87t64.5 -66h-81
q-22 17 -44.5 43t-32.5 45q-10 -19 -33.5 -45t-44.5 -43h-82q29 22 66 66.5z" />
    <glyph glyph-name="uni1EC2" unicode="&#x1ec2;" horiz-adv-x="581" 
d="M117 53q-57 53 -57 159v276q0 106 57 159t179 53h239v-75h-239q-73 0 -107 -33.5t-34 -103.5v-100h331v-76h-331v-100q0 -70 34 -103.5t107 -33.5h243v-75h-243q-122 0 -179 53zM562 922.5q-18 -16.5 -51 -24.5v-34h-59v64q39 4 55 11.5t16 23.5q0 18 -10 24t-32 6
q-24 0 -49 -10l-14 45q33 14 71 14q42 0 66.5 -17.5t24.5 -54.5q0 -31 -18 -47.5zM430.5 840q36.5 -44 64.5 -66h-81q-22 17 -44.5 43t-32.5 45q-10 -19 -33.5 -45t-44.5 -43h-82q29 22 66 66.5t59 86.5h69q23 -43 59.5 -87z" />
    <glyph glyph-name="uni1EC4" unicode="&#x1ec4;" horiz-adv-x="581" 
d="M117 53q-57 53 -57 159v276q0 106 57 159t179 53h239v-75h-239q-73 0 -107 -33.5t-34 -103.5v-100h331v-76h-331v-100q0 -70 34 -103.5t107 -33.5h243v-75h-243q-122 0 -179 53zM213 1031.5q24 29.5 68 29.5q18 0 33 -5.5t37 -16.5q12 -6 24 -11t22 -5q15 0 23 10.5
t12 33.5h53q-3 -43 -26.5 -73t-61.5 -30q-19 0 -34.5 5.5t-35.5 16.5l-12 6t-18.5 7.5t-15.5 2.5q-17 0 -26 -10.5t-14 -34.5h-54q2 45 26 74.5zM243 840.5q37 44.5 59 86.5h69q23 -43 59.5 -87t64.5 -66h-81q-22 17 -44.5 43t-32.5 45q-10 -19 -33.5 -45t-44.5 -43h-82
q29 22 66 66.5z" />
    <glyph glyph-name="Edieresis" unicode="&#xcb;" horiz-adv-x="581" 
d="M117 53q-57 53 -57 159v276q0 106 57 159t179 53h239v-75h-239q-73 0 -107 -33.5t-34 -103.5v-100h331v-76h-331v-100q0 -70 34 -103.5t107 -33.5h243v-75h-243q-122 0 -179 53zM218.5 785q-14.5 15 -14.5 35t14.5 34.5t34.5 14.5q19 0 34 -14.5t15 -34.5t-14.5 -35
t-34.5 -15t-34.5 15zM386.5 785q-14.5 15 -14.5 35t14.5 34.5t35.5 14.5q19 0 34 -14.5t15 -34.5t-14.5 -35t-34.5 -15q-21 0 -35.5 15z" />
    <glyph glyph-name="Edotaccent" unicode="&#x116;" horiz-adv-x="581" 
d="M117 53q-57 53 -57 159v276q0 106 57 159t179 53h239v-75h-239q-73 0 -107 -33.5t-34 -103.5v-100h331v-76h-331v-100q0 -70 34 -103.5t107 -33.5h243v-75h-243q-122 0 -179 53zM298 786.5q-16 16.5 -16 39.5t16 39.5t39 16.5q22 0 38.5 -16.5t16.5 -39.5t-16.5 -39.5
t-38.5 -16.5q-23 0 -39 16.5z" />
    <glyph glyph-name="uni1EB8" unicode="&#x1eb8;" horiz-adv-x="581" 
d="M117 53q-57 53 -57 159v276q0 106 57 159t179 53h239v-75h-239q-73 0 -107 -33.5t-34 -103.5v-100h331v-76h-331v-100q0 -70 34 -103.5t107 -33.5h243v-75h-243q-122 0 -179 53zM308 -156.5q-16 16.5 -16 39.5t16 39t39 16q22 0 38.5 -16.5t16.5 -38.5q0 -23 -16 -39.5
t-39 -16.5t-39 16.5z" />
    <glyph glyph-name="Egrave" unicode="&#xc8;" horiz-adv-x="581" 
d="M117 53q-57 53 -57 159v276q0 106 57 159t179 53h239v-75h-239q-73 0 -107 -33.5t-34 -103.5v-100h331v-76h-331v-100q0 -70 34 -103.5t107 -33.5h243v-75h-243q-122 0 -179 53zM197 923h95l81 -149h-73z" />
    <glyph glyph-name="uni1EBA" unicode="&#x1eba;" horiz-adv-x="581" 
d="M117 53q-57 53 -57 159v276q0 106 57 159t179 53h239v-75h-239q-73 0 -107 -33.5t-34 -103.5v-100h331v-76h-331v-100q0 -70 34 -103.5t107 -33.5h243v-75h-243q-122 0 -179 53zM366 811v-37h-67v70q44 4 62 14.5t18 29.5q0 20 -12 28t-35 8q-26 0 -54 -10l-15 49
q36 17 78 17q50 0 79.5 -21.5t29.5 -64.5q0 -65 -84 -83z" />
    <glyph glyph-name="Emacron" unicode="&#x112;" horiz-adv-x="581" 
d="M117 53q-57 53 -57 159v276q0 106 57 159t179 53h239v-75h-239q-73 0 -107 -33.5t-34 -103.5v-100h331v-76h-331v-100q0 -70 34 -103.5t107 -33.5h243v-75h-243q-122 0 -179 53zM183 856h307v-64h-307v64z" />
    <glyph glyph-name="Eogonek" unicode="&#x118;" horiz-adv-x="581" 
d="M568 -189q-33 -22 -77 -22q-64 0 -91.5 29t-27.5 64q0 65 55 118h-131q-122 0 -179 53t-57 159v276q0 106 57 159t179 53h239v-75h-239q-73 0 -107 -33.5t-34 -103.5v-100h331v-76h-331v-100q0 -70 34 -103.5t107 -33.5h243v-75h-48q-43 -57 -43 -105q0 -24 14 -35.5
t37 -11.5q21 0 54 14z" />
    <glyph glyph-name="uni1EBC" unicode="&#x1ebc;" horiz-adv-x="581" 
d="M117 53q-57 53 -57 159v276q0 106 57 159t179 53h239v-75h-239q-73 0 -107 -33.5t-34 -103.5v-100h331v-76h-331v-100q0 -70 34 -103.5t107 -33.5h243v-75h-243q-122 0 -179 53zM204 862.5q25 33.5 73 33.5q20 0 37 -6.5t39 -18.5q18 -9 28.5 -13.5t21.5 -4.5
q16 0 24 11.5t12 36.5h58q-3 -49 -27.5 -82.5t-66.5 -33.5q-21 0 -38 6.5t-38 18.5q-4 2 -14.5 7.5t-19 8t-16.5 2.5q-18 0 -27.5 -11.5t-14.5 -38.5h-58q2 51 27 84.5z" />
    <glyph glyph-name="F" unicode="F" horiz-adv-x="583" 
d="M67 488q0 106 57 159t179 53h239v-75h-239q-73 0 -107 -33.5t-34 -103.5v-120h331v-76h-331v-292h-95v488z" />
    <glyph glyph-name="G" unicode="G" horiz-adv-x="668" 
d="M135 54q-73 65 -73 190v213q0 126 72.5 190t213.5 64q90 0 153 -27t104 -82l-70 -53q-34 44 -78.5 65.5t-109.5 21.5q-190 0 -190 -179v-213q0 -180 190 -180q83 0 130.5 31t47.5 86v53q0 40 -20.5 61t-60.5 21h-118v75h142q76 0 113 -36t37 -110v-70q0 -86 -73.5 -136
t-198.5 -50q-138 0 -211 65z" />
    <glyph glyph-name="Gbreve" unicode="&#x11e;" horiz-adv-x="668" 
d="M135 54q-73 65 -73 190v213q0 126 72.5 190t213.5 64q90 0 153 -27t104 -82l-70 -53q-34 44 -78.5 65.5t-109.5 21.5q-190 0 -190 -179v-213q0 -180 190 -180q83 0 130.5 31t47.5 86v53q0 40 -20.5 61t-60.5 21h-118v75h142q76 0 113 -36t37 -110v-70q0 -86 -73.5 -136
t-198.5 -50q-138 0 -211 65zM224.5 808q-41.5 41 -41.5 109h64q3 -40 26 -63t63 -23t63.5 23t25.5 63h64q0 -68 -41.5 -109t-111.5 -41t-111.5 41z" />
    <glyph glyph-name="Gcaron" unicode="&#x1e6;" horiz-adv-x="668" 
d="M135 54q-73 65 -73 190v213q0 126 72.5 190t213.5 64q90 0 153 -27t104 -82l-70 -53q-34 44 -78.5 65.5t-109.5 21.5q-190 0 -190 -179v-213q0 -180 190 -180q83 0 130.5 31t47.5 86v53q0 40 -20.5 61t-60.5 21h-118v75h142q76 0 113 -36t37 -110v-70q0 -86 -73.5 -136
t-198.5 -50q-138 0 -211 65zM242 859.5q-37 44.5 -66 67.5h82q22 -18 45 -44t33 -46q9 19 32 45.5t45 44.5h81q-28 -22 -64.5 -66.5t-59.5 -86.5h-69q-22 41 -59 85.5z" />
    <glyph glyph-name="Gcircumflex" unicode="&#x11c;" horiz-adv-x="668" 
d="M135 54q-73 65 -73 190v213q0 126 72.5 190t213.5 64q90 0 153 -27t104 -82l-70 -53q-34 44 -78.5 65.5t-109.5 21.5q-190 0 -190 -179v-213q0 -180 190 -180q83 0 130.5 31t47.5 86v53q0 40 -20.5 61t-60.5 21h-118v75h142q76 0 113 -36t37 -110v-70q0 -86 -73.5 -136
t-198.5 -50q-138 0 -211 65zM242 840.5q37 44.5 59 86.5h69q23 -43 59.5 -87t64.5 -66h-81q-22 17 -44.5 43t-32.5 45q-10 -19 -33.5 -45t-44.5 -43h-82q29 22 66 66.5z" />
    <glyph glyph-name="uni0122" unicode="&#x122;" horiz-adv-x="668" 
d="M135 54q-73 65 -73 190v213q0 126 72.5 190t213.5 64q90 0 153 -27t104 -82l-70 -53q-34 44 -78.5 65.5t-109.5 21.5q-190 0 -190 -179v-213q0 -180 190 -180q83 0 130.5 31t47.5 86v53q0 40 -20.5 61t-60.5 21h-118v75h142q76 0 113 -36t37 -110v-70q0 -86 -73.5 -136
t-198.5 -50q-138 0 -211 65zM380 -82.5q16 -19.5 16 -52.5q0 -85 -84 -151l-28 27q51 38 58 84q-11 -6 -26 -6q-20 0 -31.5 13.5t-11.5 36.5q0 25 18 46.5t45 21.5q28 0 44 -19.5z" />
    <glyph glyph-name="Gdotaccent" unicode="&#x120;" horiz-adv-x="668" 
d="M135 54q-73 65 -73 190v213q0 126 72.5 190t213.5 64q90 0 153 -27t104 -82l-70 -53q-34 44 -78.5 65.5t-109.5 21.5q-190 0 -190 -179v-213q0 -180 190 -180q83 0 130.5 31t47.5 86v53q0 40 -20.5 61t-60.5 21h-118v75h142q76 0 113 -36t37 -110v-70q0 -86 -73.5 -136
t-198.5 -50q-138 0 -211 65zM297 786.5q-16 16.5 -16 39.5t16 39.5t39 16.5q22 0 38.5 -16.5t16.5 -39.5t-16.5 -39.5t-38.5 -16.5q-23 0 -39 16.5z" />
    <glyph glyph-name="uni1E20" unicode="&#x1e20;" horiz-adv-x="668" 
d="M135 54q-73 65 -73 190v213q0 126 72.5 190t213.5 64q90 0 153 -27t104 -82l-70 -53q-34 44 -78.5 65.5t-109.5 21.5q-190 0 -190 -179v-213q0 -180 190 -180q83 0 130.5 31t47.5 86v53q0 40 -20.5 61t-60.5 21h-118v75h142q76 0 113 -36t37 -110v-70q0 -86 -73.5 -136
t-198.5 -50q-138 0 -211 65zM182 856h307v-64h-307v64z" />
    <glyph glyph-name="H" unicode="H" horiz-adv-x="721" 
d="M92 700h95v-311h348v311h95v-700h-95v313h-348v-313h-95v700z" />
    <glyph glyph-name="Hbar" unicode="&#x126;" horiz-adv-x="725" 
d="M715 515h-84v-515h-95v313h-348v-313h-95v515h-83v67h83v118h95v-118h348v118h95v-118h84v-67zM536 515h-348v-126h348v126z" />
    <glyph glyph-name="uni1E2A" unicode="&#x1e2a;" horiz-adv-x="721" 
d="M92 700h95v-311h348v311h95v-700h-95v313h-348v-313h-95v700zM249.5 -182.5q-41.5 42.5 -41.5 113.5h64q3 -42 26 -66.5t63 -24.5t63.5 24.5t25.5 66.5h64q0 -71 -41.5 -113.5t-111.5 -42.5t-111.5 42.5z" />
    <glyph glyph-name="Hcircumflex" unicode="&#x124;" horiz-adv-x="721" 
d="M92 700h95v-311h348v311h95v-700h-95v313h-348v-313h-95v700zM267 840.5q37 44.5 59 86.5h69q23 -43 59.5 -87t64.5 -66h-81q-22 17 -44.5 43t-32.5 45q-10 -19 -33.5 -45t-44.5 -43h-82q29 22 66 66.5z" />
    <glyph glyph-name="uni1E24" unicode="&#x1e24;" horiz-adv-x="721" 
d="M92 700h95v-311h348v311h95v-700h-95v313h-348v-313h-95v700zM322 -156.5q-16 16.5 -16 39.5t16 39t39 16q22 0 38.5 -16.5t16.5 -38.5q0 -23 -16 -39.5t-39 -16.5t-39 16.5z" />
    <glyph glyph-name="I" unicode="I" horiz-adv-x="278" 
d="M92 700h95v-700h-95v700z" />
    <glyph glyph-name="IJ" unicode="&#x132;" horiz-adv-x="779" 
d="M92 700h95v-700h-95v700zM358.5 10q-45.5 21 -86.5 68l56 58q30 -39 63 -55.5t81 -16.5q71 0 108 34.5t37 99.5v502h95v-503q0 -101 -61 -154.5t-177 -53.5q-70 0 -115.5 21z" />
    <glyph glyph-name="Iacute" unicode="&#xcd;" horiz-adv-x="278" 
d="M92 700h95v-700h-95v700zM180 923h95l-103 -149h-72z" />
    <glyph glyph-name="Ibreve" unicode="&#x12c;" horiz-adv-x="278" 
d="M92 700h95v-700h-95v700zM27.5 808q-41.5 41 -41.5 109h64q3 -40 26 -63t63 -23t63.5 23t25.5 63h64q0 -68 -41.5 -109t-111.5 -41t-111.5 41z" />
    <glyph glyph-name="uni01CF" unicode="&#x1cf;" horiz-adv-x="278" 
d="M92 700h95v-700h-95v700zM45 859.5q-37 44.5 -66 67.5h82q22 -18 45 -44t33 -46q9 19 32 45.5t45 44.5h81q-28 -22 -64.5 -66.5t-59.5 -86.5h-69q-22 41 -59 85.5z" />
    <glyph glyph-name="Icircumflex" unicode="&#xce;" horiz-adv-x="278" 
d="M92 700h95v-700h-95v700zM45 840.5q37 44.5 59 86.5h69q23 -43 59.5 -87t64.5 -66h-81q-22 17 -44.5 43t-32.5 45q-10 -19 -33.5 -45t-44.5 -43h-82q29 22 66 66.5z" />
    <glyph glyph-name="Idieresis" unicode="&#xcf;" horiz-adv-x="278" 
d="M92 700h95v-700h-95v700zM20.5 785q-14.5 15 -14.5 35t14.5 34.5t34.5 14.5q19 0 34 -14.5t15 -34.5t-14.5 -35t-34.5 -15t-34.5 15zM188.5 785q-14.5 15 -14.5 35t14.5 34.5t35.5 14.5q19 0 34 -14.5t15 -34.5t-14.5 -35t-34.5 -15q-21 0 -35.5 15z" />
    <glyph glyph-name="Idotaccent" unicode="&#x130;" horiz-adv-x="278" 
d="M92 700h95v-700h-95v700zM100 786.5q-16 16.5 -16 39.5t16 39.5t39 16.5q22 0 38.5 -16.5t16.5 -39.5t-16.5 -39.5t-38.5 -16.5q-23 0 -39 16.5z" />
    <glyph glyph-name="uni1ECA" unicode="&#x1eca;" horiz-adv-x="278" 
d="M92 700h95v-700h-95v700zM100 -156.5q-16 16.5 -16 39.5t16 39t39 16q22 0 38.5 -16.5t16.5 -38.5q0 -23 -16 -39.5t-39 -16.5t-39 16.5z" />
    <glyph glyph-name="Igrave" unicode="&#xcc;" horiz-adv-x="278" 
d="M92 700h95v-700h-95v700zM-1 923h95l81 -149h-73z" />
    <glyph glyph-name="uni1EC8" unicode="&#x1ec8;" horiz-adv-x="278" 
d="M92 700h95v-700h-95v700zM168 811v-37h-67v70q44 4 62 14.5t18 29.5q0 20 -12 28t-35 8q-26 0 -54 -10l-15 49q36 17 78 17q50 0 79.5 -21.5t29.5 -64.5q0 -65 -84 -83z" />
    <glyph glyph-name="Imacron" unicode="&#x12a;" horiz-adv-x="278" 
d="M92 700h95v-700h-95v700zM-15 856h307v-64h-307v64z" />
    <glyph glyph-name="Iogonek" unicode="&#x12e;" horiz-adv-x="278" 
d="M259 -189q-34 -22 -77 -22q-64 0 -91.5 29t-27.5 64q0 65 55 118h-26v700h95v-700h-5q-44 -59 -44 -105q0 -24 14.5 -35.5t37.5 -11.5q21 0 54 14z" />
    <glyph glyph-name="Itilde" unicode="&#x128;" horiz-adv-x="278" 
d="M92 700h95v-700h-95v700zM6 862.5q25 33.5 73 33.5q20 0 37 -6.5t39 -18.5q18 -9 28.5 -13.5t21.5 -4.5q16 0 24 11.5t12 36.5h58q-3 -49 -27.5 -82.5t-66.5 -33.5q-21 0 -38 6.5t-38 18.5q-4 2 -14.5 7.5t-19 8t-16.5 2.5q-18 0 -27.5 -11.5t-14.5 -38.5h-58
q2 51 27 84.5z" />
    <glyph glyph-name="J" unicode="J" horiz-adv-x="534" 
d="M113.5 10q-45.5 21 -86.5 68l56 58q30 -39 63 -55.5t81 -16.5q71 0 108 34.5t37 99.5v502h95v-503q0 -101 -61 -154.5t-177 -53.5q-70 0 -115.5 21z" />
    <glyph glyph-name="Jcircumflex" unicode="&#x134;" horiz-adv-x="534" 
d="M113.5 10q-45.5 21 -86.5 68l56 58q30 -39 63 -55.5t81 -16.5q71 0 108 34.5t37 99.5v502h95v-503q0 -101 -61 -154.5t-177 -53.5q-70 0 -115.5 21zM326 840.5q37 44.5 59 86.5h69q23 -43 59.5 -87t64.5 -66h-81q-22 17 -44.5 43t-32.5 45q-10 -19 -33.5 -45t-44.5 -43
h-82q29 22 66 66.5z" />
    <glyph glyph-name="K" unicode="K" horiz-adv-x="676" 
d="M499 375q38 -42 68 -134l73 -241h-95l-71 232q-14 46 -30.5 71t-44 39t-74.5 18l-138 -146v-214h-95v700h95v-370l345 370h114l-256 -271q71 -12 109 -54z" />
    <glyph glyph-name="uni0136" unicode="&#x136;" horiz-adv-x="676" 
d="M499 375q38 -42 68 -134l73 -241h-95l-71 232q-14 46 -30.5 71t-44 39t-74.5 18l-138 -146v-214h-95v700h95v-370l345 370h114l-256 -271q71 -12 109 -54zM402 -82.5q16 -19.5 16 -52.5q0 -85 -84 -151l-28 27q51 38 58 84q-11 -6 -26 -6q-20 0 -31.5 13.5t-11.5 36.5
q0 25 18 46.5t45 21.5q28 0 44 -19.5z" />
    <glyph glyph-name="L" unicode="L" horiz-adv-x="553" 
d="M122.5 53q-55.5 53 -55.5 159v488h95v-488q0 -70 33 -103.5t102 -33.5h225v-75h-225q-119 0 -174.5 53z" />
    <glyph glyph-name="Lacute" unicode="&#x139;" horiz-adv-x="553" 
d="M122.5 53q-55.5 53 -55.5 159v488h95v-488q0 -70 33 -103.5t102 -33.5h225v-75h-225q-119 0 -174.5 53zM155 923h95l-103 -149h-72z" />
    <glyph glyph-name="Lcaron" unicode="&#x13d;" horiz-adv-x="568" 
d="M122.5 53q-55.5 53 -55.5 159v488h95v-488q0 -70 33 -103.5t102 -33.5h225v-75h-225q-119 0 -174.5 53zM471.5 706q15.5 -19 15.5 -53q0 -88 -84 -155l-28 28q52 40 58 87q-11 -6 -26 -6q-20 0 -31 13.5t-11 37.5q0 25 18 46t44 21q29 0 44.5 -19z" />
    <glyph glyph-name="uni013B" unicode="&#x13b;" horiz-adv-x="553" 
d="M122.5 53q-55.5 53 -55.5 159v488h95v-488q0 -70 33 -103.5t102 -33.5h225v-75h-225q-119 0 -174.5 53zM357 -82.5q16 -19.5 16 -52.5q0 -85 -84 -151l-28 27q51 38 58 84q-11 -6 -26 -6q-20 0 -31.5 13.5t-11.5 36.5q0 25 18 46.5t45 21.5q28 0 44 -19.5z" />
    <glyph glyph-name="Ldot" unicode="&#x13f;" horiz-adv-x="553" 
d="M122.5 53q-55.5 53 -55.5 159v488h95v-488q0 -70 33 -103.5t102 -33.5h225v-75h-225q-119 0 -174.5 53zM344 291.5q-20 19.5 -20 48.5t20 49.5t49 20.5q28 0 48 -20.5t20 -49.5q0 -28 -20 -48t-48 -20q-29 0 -49 19.5z" />
    <glyph glyph-name="uni1E36" unicode="&#x1e36;" horiz-adv-x="553" 
d="M122.5 53q-55.5 53 -55.5 159v488h95v-488q0 -70 33 -103.5t102 -33.5h225v-75h-225q-119 0 -174.5 53zM274 -156.5q-16 16.5 -16 39.5t16 39t39 16q22 0 38.5 -16.5t16.5 -38.5q0 -23 -16 -39.5t-39 -16.5t-39 16.5z" />
    <glyph glyph-name="uni1E38" unicode="&#x1e38;" horiz-adv-x="553" 
d="M122.5 53q-55.5 53 -55.5 159v488h95v-488q0 -70 33 -103.5t102 -33.5h225v-75h-225q-119 0 -174.5 53zM274 -156.5q-16 16.5 -16 39.5t16 39t39 16q22 0 38.5 -16.5t16.5 -38.5q0 -23 -16 -39.5t-39 -16.5t-39 16.5zM-40 856h307v-64h-307v64z" />
    <glyph glyph-name="uni1E3A" unicode="&#x1e3a;" horiz-adv-x="553" 
d="M122.5 53q-55.5 53 -55.5 159v488h95v-488q0 -70 33 -103.5t102 -33.5h225v-75h-225q-119 0 -174.5 53zM159 -78h307v-65h-307v65z" />
    <glyph glyph-name="Lslash" unicode="&#x141;" horiz-adv-x="564" 
d="M533 75v-75h-225q-119 0 -174.5 53t-55.5 159v50l-78 -35v76l78 35v362h95v-319l231 105v-76l-231 -105v-93q0 -70 33 -103.5t102 -33.5h225z" />
    <glyph glyph-name="M" unicode="M" horiz-adv-x="826" 
d="M92 700h53q56 0 86.5 -24t63.5 -89l118 -227l118 227q33 65 63.5 89t86.5 24h53v-700h-88v603q-13 -1 -22.5 -10.5t-22.5 -32.5l-188 -353l-188 353q-12 23 -22 32.5t-23 10.5v-603h-88v700z" />
    <glyph glyph-name="uni1E42" unicode="&#x1e42;" horiz-adv-x="826" 
d="M92 700h53q56 0 86.5 -24t63.5 -89l118 -227l118 227q33 65 63.5 89t86.5 24h53v-700h-88v603q-13 -1 -22.5 -10.5t-22.5 -32.5l-188 -353l-188 353q-12 23 -22 32.5t-23 10.5v-603h-88v700zM374 -156.5q-16 16.5 -16 39.5t16 39t39 16q22 0 38.5 -16.5t16.5 -38.5
q0 -23 -16 -39.5t-39 -16.5t-39 16.5z" />
    <glyph glyph-name="N" unicode="N" horiz-adv-x="723" 
d="M643 700v-576q0 -62 -25.5 -93t-80.5 -31h-67l-288 554v-554h-90v700h110l317 -618h6q16 0 22 12t6 44v562h90z" />
    <glyph glyph-name="Nacute" unicode="&#x143;" horiz-adv-x="723" 
d="M643 700v-576q0 -62 -25.5 -93t-80.5 -31h-67l-288 554v-554h-90v700h110l317 -618h6q16 0 22 12t6 44v562h90zM406 923h95l-103 -149h-72z" />
    <glyph glyph-name="Ncaron" unicode="&#x147;" horiz-adv-x="723" 
d="M643 700v-576q0 -62 -25.5 -93t-80.5 -31h-67l-288 554v-554h-90v700h110l317 -618h6q16 0 22 12t6 44v562h90zM271 859.5q-37 44.5 -66 67.5h82q22 -18 45 -44t33 -46q9 19 32 45.5t45 44.5h81q-28 -22 -64.5 -66.5t-59.5 -86.5h-69q-22 41 -59 85.5z" />
    <glyph glyph-name="uni0145" unicode="&#x145;" horiz-adv-x="723" 
d="M643 700v-576q0 -62 -25.5 -93t-80.5 -31h-67l-288 554v-554h-90v700h110l317 -618h6q16 0 22 12t6 44v562h90zM402 -82.5q16 -19.5 16 -52.5q0 -85 -84 -151l-28 27q51 38 58 84q-11 -6 -26 -6q-20 0 -31.5 13.5t-11.5 36.5q0 25 18 46.5t45 21.5q28 0 44 -19.5z" />
    <glyph glyph-name="uni1E44" unicode="&#x1e44;" horiz-adv-x="723" 
d="M643 700v-576q0 -62 -25.5 -93t-80.5 -31h-67l-288 554v-554h-90v700h110l317 -618h6q16 0 22 12t6 44v562h90zM326 786.5q-16 16.5 -16 39.5t16 39.5t39 16.5q22 0 38.5 -16.5t16.5 -39.5t-16.5 -39.5t-38.5 -16.5q-23 0 -39 16.5z" />
    <glyph glyph-name="uni1E46" unicode="&#x1e46;" horiz-adv-x="723" 
d="M643 700v-576q0 -62 -25.5 -93t-80.5 -31h-67l-288 554v-554h-90v700h110l317 -618h6q16 0 22 12t6 44v562h90zM319 -156.5q-16 16.5 -16 39.5t16 39t39 16q22 0 38.5 -16.5t16.5 -38.5q0 -23 -16 -39.5t-39 -16.5t-39 16.5z" />
    <glyph glyph-name="Eng" unicode="&#x14a;" horiz-adv-x="723" 
d="M416 -153h49q46 0 67 25t21 79v50l-19 -1h-64l-288 554v-554h-90v700h110l318 -618h5q16 0 22 12t6 44v562h90v-749q0 -95 -42 -137t-136 -42h-49v75z" />
    <glyph glyph-name="uni1E48" unicode="&#x1e48;" horiz-adv-x="723" 
d="M643 700v-576q0 -62 -25.5 -93t-80.5 -31h-67l-288 554v-554h-90v700h110l317 -618h6q16 0 22 12t6 44v562h90zM204 -78h307v-65h-307v65z" />
    <glyph glyph-name="Ntilde" unicode="&#xd1;" horiz-adv-x="723" 
d="M643 700v-576q0 -62 -25.5 -93t-80.5 -31h-67l-288 554v-554h-90v700h110l317 -618h6q16 0 22 12t6 44v562h90zM232 862.5q25 33.5 73 33.5q20 0 37 -6.5t39 -18.5q18 -9 28.5 -13.5t21.5 -4.5q16 0 24 11.5t12 36.5h58q-3 -49 -27.5 -82.5t-66.5 -33.5q-21 0 -38 6.5
t-38 18.5q-4 2 -14.5 7.5t-19 8t-16.5 2.5q-18 0 -27.5 -11.5t-14.5 -38.5h-58q2 51 27 84.5z" />
    <glyph glyph-name="O" unicode="O" horiz-adv-x="681" 
d="M133.5 54q-71.5 65 -71.5 190v212q0 125 71.5 190t206.5 65q136 0 207.5 -65t71.5 -190v-212q0 -125 -71.5 -190t-207.5 -65q-135 0 -206.5 65zM476.5 110.5q47.5 46.5 47.5 133.5v212q0 87 -47.5 133.5t-136.5 46.5q-88 0 -135.5 -46.5t-47.5 -133.5v-212
q0 -87 47.5 -133.5t135.5 -46.5q89 0 136.5 46.5z" />
    <glyph glyph-name="Oacute" unicode="&#xd3;" horiz-adv-x="681" 
d="M133.5 54q-71.5 65 -71.5 190v212q0 125 71.5 190t206.5 65q136 0 207.5 -65t71.5 -190v-212q0 -125 -71.5 -190t-207.5 -65q-135 0 -206.5 65zM476.5 110.5q47.5 46.5 47.5 133.5v212q0 87 -47.5 133.5t-136.5 46.5q-88 0 -135.5 -46.5t-47.5 -133.5v-212
q0 -87 47.5 -133.5t135.5 -46.5q89 0 136.5 46.5zM381 923h95l-103 -149h-72z" />
    <glyph glyph-name="Obreve" unicode="&#x14e;" horiz-adv-x="681" 
d="M133.5 54q-71.5 65 -71.5 190v212q0 125 71.5 190t206.5 65q136 0 207.5 -65t71.5 -190v-212q0 -125 -71.5 -190t-207.5 -65q-135 0 -206.5 65zM476.5 110.5q47.5 46.5 47.5 133.5v212q0 87 -47.5 133.5t-136.5 46.5q-88 0 -135.5 -46.5t-47.5 -133.5v-212
q0 -87 47.5 -133.5t135.5 -46.5q89 0 136.5 46.5zM228.5 808q-41.5 41 -41.5 109h64q3 -40 26 -63t63 -23t63.5 23t25.5 63h64q0 -68 -41.5 -109t-111.5 -41t-111.5 41z" />
    <glyph glyph-name="uni01D1" unicode="&#x1d1;" horiz-adv-x="681" 
d="M133.5 54q-71.5 65 -71.5 190v212q0 125 71.5 190t206.5 65q136 0 207.5 -65t71.5 -190v-212q0 -125 -71.5 -190t-207.5 -65q-135 0 -206.5 65zM476.5 110.5q47.5 46.5 47.5 133.5v212q0 87 -47.5 133.5t-136.5 46.5q-88 0 -135.5 -46.5t-47.5 -133.5v-212
q0 -87 47.5 -133.5t135.5 -46.5q89 0 136.5 46.5zM246 859.5q-37 44.5 -66 67.5h82q22 -18 45 -44t33 -46q9 19 32 45.5t45 44.5h81q-28 -22 -64.5 -66.5t-59.5 -86.5h-69q-22 41 -59 85.5z" />
    <glyph glyph-name="Ocircumflex" unicode="&#xd4;" horiz-adv-x="681" 
d="M133.5 54q-71.5 65 -71.5 190v212q0 125 71.5 190t206.5 65q136 0 207.5 -65t71.5 -190v-212q0 -125 -71.5 -190t-207.5 -65q-135 0 -206.5 65zM476.5 110.5q47.5 46.5 47.5 133.5v212q0 87 -47.5 133.5t-136.5 46.5q-88 0 -135.5 -46.5t-47.5 -133.5v-212
q0 -87 47.5 -133.5t135.5 -46.5q89 0 136.5 46.5zM246 840.5q37 44.5 59 86.5h69q23 -43 59.5 -87t64.5 -66h-81q-22 17 -44.5 43t-32.5 45q-10 -19 -33.5 -45t-44.5 -43h-82q29 22 66 66.5z" />
    <glyph glyph-name="uni1ED0" unicode="&#x1ed0;" horiz-adv-x="681" 
d="M133.5 54q-71.5 65 -71.5 190v212q0 125 71.5 190t206.5 65q136 0 207.5 -65t71.5 -190v-212q0 -125 -71.5 -190t-207.5 -65q-135 0 -206.5 65zM476.5 110.5q47.5 46.5 47.5 133.5v212q0 87 -47.5 133.5t-136.5 46.5q-88 0 -135.5 -46.5t-47.5 -133.5v-212
q0 -87 47.5 -133.5t135.5 -46.5q89 0 136.5 46.5zM511 983h89l-84 -116h-68zM246 840.5q37 44.5 59 86.5h69q23 -43 59.5 -87t64.5 -66h-81q-22 17 -44.5 43t-32.5 45q-10 -19 -33.5 -45t-44.5 -43h-82q29 22 66 66.5z" />
    <glyph glyph-name="uni1ED8" unicode="&#x1ed8;" horiz-adv-x="681" 
d="M133.5 54q-71.5 65 -71.5 190v212q0 125 71.5 190t206.5 65q136 0 207.5 -65t71.5 -190v-212q0 -125 -71.5 -190t-207.5 -65q-135 0 -206.5 65zM476.5 110.5q47.5 46.5 47.5 133.5v212q0 87 -47.5 133.5t-136.5 46.5q-88 0 -135.5 -46.5t-47.5 -133.5v-212
q0 -87 47.5 -133.5t135.5 -46.5q89 0 136.5 46.5zM301 -156.5q-16 16.5 -16 39.5t16 39t39 16q22 0 38.5 -16.5t16.5 -38.5q0 -23 -16 -39.5t-39 -16.5t-39 16.5zM246 840.5q37 44.5 59 86.5h69q23 -43 59.5 -87t64.5 -66h-81q-22 17 -44.5 43t-32.5 45q-10 -19 -33.5 -45
t-44.5 -43h-82q29 22 66 66.5z" />
    <glyph glyph-name="uni1ED2" unicode="&#x1ed2;" horiz-adv-x="681" 
d="M133.5 54q-71.5 65 -71.5 190v212q0 125 71.5 190t206.5 65q136 0 207.5 -65t71.5 -190v-212q0 -125 -71.5 -190t-207.5 -65q-135 0 -206.5 65zM476.5 110.5q47.5 46.5 47.5 133.5v212q0 87 -47.5 133.5t-136.5 46.5q-88 0 -135.5 -46.5t-47.5 -133.5v-212
q0 -87 47.5 -133.5t135.5 -46.5q89 0 136.5 46.5zM416 983h89l63 -116h-68zM246 840.5q37 44.5 59 86.5h69q23 -43 59.5 -87t64.5 -66h-81q-22 17 -44.5 43t-32.5 45q-10 -19 -33.5 -45t-44.5 -43h-82q29 22 66 66.5z" />
    <glyph glyph-name="uni1ED4" unicode="&#x1ed4;" horiz-adv-x="681" 
d="M133.5 54q-71.5 65 -71.5 190v212q0 125 71.5 190t206.5 65q136 0 207.5 -65t71.5 -190v-212q0 -125 -71.5 -190t-207.5 -65q-135 0 -206.5 65zM476.5 110.5q47.5 46.5 47.5 133.5v212q0 87 -47.5 133.5t-136.5 46.5q-88 0 -135.5 -46.5t-47.5 -133.5v-212
q0 -87 47.5 -133.5t135.5 -46.5q89 0 136.5 46.5zM565 922.5q-18 -16.5 -51 -24.5v-34h-59v64q39 4 55 11.5t16 23.5q0 18 -10 24t-32 6q-24 0 -49 -10l-14 45q33 14 71 14q42 0 66.5 -17.5t24.5 -54.5q0 -31 -18 -47.5zM433.5 840q36.5 -44 64.5 -66h-81q-22 17 -44.5 43
t-32.5 45q-10 -19 -33.5 -45t-44.5 -43h-82q29 22 66 66.5t59 86.5h69q23 -43 59.5 -87z" />
    <glyph glyph-name="uni1ED6" unicode="&#x1ed6;" horiz-adv-x="681" 
d="M133.5 54q-71.5 65 -71.5 190v212q0 125 71.5 190t206.5 65q136 0 207.5 -65t71.5 -190v-212q0 -125 -71.5 -190t-207.5 -65q-135 0 -206.5 65zM476.5 110.5q47.5 46.5 47.5 133.5v212q0 87 -47.5 133.5t-136.5 46.5q-88 0 -135.5 -46.5t-47.5 -133.5v-212
q0 -87 47.5 -133.5t135.5 -46.5q89 0 136.5 46.5zM216 1031.5q24 29.5 68 29.5q18 0 33 -5.5t37 -16.5q12 -6 24 -11t22 -5q15 0 23 10.5t12 33.5h53q-3 -43 -26.5 -73t-61.5 -30q-19 0 -34.5 5.5t-35.5 16.5l-12 6t-18.5 7.5t-15.5 2.5q-17 0 -26 -10.5t-14 -34.5h-54
q2 45 26 74.5zM246 840.5q37 44.5 59 86.5h69q23 -43 59.5 -87t64.5 -66h-81q-22 17 -44.5 43t-32.5 45q-10 -19 -33.5 -45t-44.5 -43h-82q29 22 66 66.5z" />
    <glyph glyph-name="Odieresis" unicode="&#xd6;" horiz-adv-x="681" 
d="M133.5 54q-71.5 65 -71.5 190v212q0 125 71.5 190t206.5 65q136 0 207.5 -65t71.5 -190v-212q0 -125 -71.5 -190t-207.5 -65q-135 0 -206.5 65zM476.5 110.5q47.5 46.5 47.5 133.5v212q0 87 -47.5 133.5t-136.5 46.5q-88 0 -135.5 -46.5t-47.5 -133.5v-212
q0 -87 47.5 -133.5t135.5 -46.5q89 0 136.5 46.5zM221.5 785q-14.5 15 -14.5 35t14.5 34.5t34.5 14.5q19 0 34 -14.5t15 -34.5t-14.5 -35t-34.5 -15t-34.5 15zM389.5 785q-14.5 15 -14.5 35t14.5 34.5t35.5 14.5q19 0 34 -14.5t15 -34.5t-14.5 -35t-34.5 -15q-21 0 -35.5 15
z" />
    <glyph glyph-name="uni1ECC" unicode="&#x1ecc;" horiz-adv-x="681" 
d="M133.5 54q-71.5 65 -71.5 190v212q0 125 71.5 190t206.5 65q136 0 207.5 -65t71.5 -190v-212q0 -125 -71.5 -190t-207.5 -65q-135 0 -206.5 65zM476.5 110.5q47.5 46.5 47.5 133.5v212q0 87 -47.5 133.5t-136.5 46.5q-88 0 -135.5 -46.5t-47.5 -133.5v-212
q0 -87 47.5 -133.5t135.5 -46.5q89 0 136.5 46.5zM301 -156.5q-16 16.5 -16 39.5t16 39t39 16q22 0 38.5 -16.5t16.5 -38.5q0 -23 -16 -39.5t-39 -16.5t-39 16.5z" />
    <glyph glyph-name="Ograve" unicode="&#xd2;" horiz-adv-x="681" 
d="M133.5 54q-71.5 65 -71.5 190v212q0 125 71.5 190t206.5 65q136 0 207.5 -65t71.5 -190v-212q0 -125 -71.5 -190t-207.5 -65q-135 0 -206.5 65zM476.5 110.5q47.5 46.5 47.5 133.5v212q0 87 -47.5 133.5t-136.5 46.5q-88 0 -135.5 -46.5t-47.5 -133.5v-212
q0 -87 47.5 -133.5t135.5 -46.5q89 0 136.5 46.5zM200 923h95l81 -149h-73z" />
    <glyph glyph-name="uni1ECE" unicode="&#x1ece;" horiz-adv-x="681" 
d="M133.5 54q-71.5 65 -71.5 190v212q0 125 71.5 190t206.5 65q136 0 207.5 -65t71.5 -190v-212q0 -125 -71.5 -190t-207.5 -65q-135 0 -206.5 65zM476.5 110.5q47.5 46.5 47.5 133.5v212q0 87 -47.5 133.5t-136.5 46.5q-88 0 -135.5 -46.5t-47.5 -133.5v-212
q0 -87 47.5 -133.5t135.5 -46.5q89 0 136.5 46.5zM369 811v-37h-67v70q44 4 62 14.5t18 29.5q0 20 -12 28t-35 8q-26 0 -54 -10l-15 49q36 17 78 17q50 0 79.5 -21.5t29.5 -64.5q0 -65 -84 -83z" />
    <glyph glyph-name="Ohorn" unicode="&#x1a0;" horiz-adv-x="693" 
d="M708 597q-31 -44 -100 -53q11 -41 11 -88v-212q0 -125 -71.5 -190t-207.5 -65q-135 0 -206.5 65t-71.5 190v212q0 125 71.5 190t206.5 65q92 0 155 -30.5t94 -89.5q41 6 56 39.5t15 99.5h81q-2 -89 -33 -133zM524 456q0 87 -47.5 133.5t-136.5 46.5q-88 0 -135.5 -46.5
t-47.5 -133.5v-212q0 -87 47.5 -133.5t135.5 -46.5q89 0 136.5 46.5t47.5 133.5v212z" />
    <glyph glyph-name="uni1EDA" unicode="&#x1eda;" horiz-adv-x="693" 
d="M708 597q-31 -44 -100 -53q11 -41 11 -88v-212q0 -125 -71.5 -190t-207.5 -65q-135 0 -206.5 65t-71.5 190v212q0 125 71.5 190t206.5 65q92 0 155 -30.5t94 -89.5q41 6 56 39.5t15 99.5h81q-2 -89 -33 -133zM524 456q0 87 -47.5 133.5t-136.5 46.5q-88 0 -135.5 -46.5
t-47.5 -133.5v-212q0 -87 47.5 -133.5t135.5 -46.5q89 0 136.5 46.5t47.5 133.5v212zM381 923h95l-103 -149h-72z" />
    <glyph glyph-name="uni1EE2" unicode="&#x1ee2;" horiz-adv-x="693" 
d="M708 597q-31 -44 -100 -53q11 -41 11 -88v-212q0 -125 -71.5 -190t-207.5 -65q-135 0 -206.5 65t-71.5 190v212q0 125 71.5 190t206.5 65q92 0 155 -30.5t94 -89.5q41 6 56 39.5t15 99.5h81q-2 -89 -33 -133zM524 456q0 87 -47.5 133.5t-136.5 46.5q-88 0 -135.5 -46.5
t-47.5 -133.5v-212q0 -87 47.5 -133.5t135.5 -46.5q89 0 136.5 46.5t47.5 133.5v212zM301 -156.5q-16 16.5 -16 39.5t16 39t39 16q22 0 38.5 -16.5t16.5 -38.5q0 -23 -16 -39.5t-39 -16.5t-39 16.5z" />
    <glyph glyph-name="uni1EDC" unicode="&#x1edc;" horiz-adv-x="693" 
d="M708 597q-31 -44 -100 -53q11 -41 11 -88v-212q0 -125 -71.5 -190t-207.5 -65q-135 0 -206.5 65t-71.5 190v212q0 125 71.5 190t206.5 65q92 0 155 -30.5t94 -89.5q41 6 56 39.5t15 99.5h81q-2 -89 -33 -133zM524 456q0 87 -47.5 133.5t-136.5 46.5q-88 0 -135.5 -46.5
t-47.5 -133.5v-212q0 -87 47.5 -133.5t135.5 -46.5q89 0 136.5 46.5t47.5 133.5v212zM200 923h95l81 -149h-73z" />
    <glyph glyph-name="uni1EDE" unicode="&#x1ede;" horiz-adv-x="693" 
d="M708 597q-31 -44 -100 -53q11 -41 11 -88v-212q0 -125 -71.5 -190t-207.5 -65q-135 0 -206.5 65t-71.5 190v212q0 125 71.5 190t206.5 65q92 0 155 -30.5t94 -89.5q41 6 56 39.5t15 99.5h81q-2 -89 -33 -133zM524 456q0 87 -47.5 133.5t-136.5 46.5q-88 0 -135.5 -46.5
t-47.5 -133.5v-212q0 -87 47.5 -133.5t135.5 -46.5q89 0 136.5 46.5t47.5 133.5v212zM369 811v-37h-67v70q44 4 62 14.5t18 29.5q0 20 -12 28t-35 8q-26 0 -54 -10l-15 49q36 17 78 17q50 0 79.5 -21.5t29.5 -64.5q0 -65 -84 -83z" />
    <glyph glyph-name="uni1EE0" unicode="&#x1ee0;" horiz-adv-x="693" 
d="M708 597q-31 -44 -100 -53q11 -41 11 -88v-212q0 -125 -71.5 -190t-207.5 -65q-135 0 -206.5 65t-71.5 190v212q0 125 71.5 190t206.5 65q92 0 155 -30.5t94 -89.5q41 6 56 39.5t15 99.5h81q-2 -89 -33 -133zM524 456q0 87 -47.5 133.5t-136.5 46.5q-88 0 -135.5 -46.5
t-47.5 -133.5v-212q0 -87 47.5 -133.5t135.5 -46.5q89 0 136.5 46.5t47.5 133.5v212zM207 862.5q25 33.5 73 33.5q20 0 37 -6.5t39 -18.5q18 -9 28.5 -13.5t21.5 -4.5q16 0 24 11.5t12 36.5h58q-3 -49 -27.5 -82.5t-66.5 -33.5q-21 0 -38 6.5t-38 18.5q-4 2 -14.5 7.5t-19 8
t-16.5 2.5q-18 0 -27.5 -11.5t-14.5 -38.5h-58q2 51 27 84.5z" />
    <glyph glyph-name="Ohungarumlaut" unicode="&#x150;" horiz-adv-x="681" 
d="M133.5 54q-71.5 65 -71.5 190v212q0 125 71.5 190t206.5 65q136 0 207.5 -65t71.5 -190v-212q0 -125 -71.5 -190t-207.5 -65q-135 0 -206.5 65zM476.5 110.5q47.5 46.5 47.5 133.5v212q0 87 -47.5 133.5t-136.5 46.5q-88 0 -135.5 -46.5t-47.5 -133.5v-212
q0 -87 47.5 -133.5t135.5 -46.5q89 0 136.5 46.5zM288 923h83l-81 -149h-67zM453 923h83l-81 -149h-67z" />
    <glyph glyph-name="Omacron" unicode="&#x14c;" horiz-adv-x="681" 
d="M133.5 54q-71.5 65 -71.5 190v212q0 125 71.5 190t206.5 65q136 0 207.5 -65t71.5 -190v-212q0 -125 -71.5 -190t-207.5 -65q-135 0 -206.5 65zM476.5 110.5q47.5 46.5 47.5 133.5v212q0 87 -47.5 133.5t-136.5 46.5q-88 0 -135.5 -46.5t-47.5 -133.5v-212
q0 -87 47.5 -133.5t135.5 -46.5q89 0 136.5 46.5zM186 856h307v-64h-307v64z" />
    <glyph glyph-name="Oslash" unicode="&#xd8;" horiz-adv-x="681" 
d="M619 456v-212q0 -125 -71.5 -190t-207.5 -65q-72 0 -129 20l-40 -79h-73l55 108q-91 64 -91 206v212q0 125 71.5 190t206.5 65q84 0 145 -26l43 85h73l-61 -118q79 -65 79 -196zM195 120l252 492q-43 24 -107 24q-88 0 -135.5 -46.5t-47.5 -133.5v-212q0 -78 38 -124z
M524 456q0 65 -28 109l-248 -484q40 -17 92 -17q89 0 136.5 46.5t47.5 133.5v212z" />
    <glyph glyph-name="Oslashacute" unicode="&#x1fe;" horiz-adv-x="681" 
d="M619 456v-212q0 -125 -71.5 -190t-207.5 -65q-72 0 -129 20l-40 -79h-73l55 108q-91 64 -91 206v212q0 125 71.5 190t206.5 65q84 0 145 -26l43 85h73l-61 -118q79 -65 79 -196zM195 120l252 492q-43 24 -107 24q-88 0 -135.5 -46.5t-47.5 -133.5v-212q0 -78 38 -124z
M524 456q0 65 -28 109l-248 -484q40 -17 92 -17q89 0 136.5 46.5t47.5 133.5v212zM381 923h95l-103 -149h-72z" />
    <glyph glyph-name="Otilde" unicode="&#xd5;" horiz-adv-x="681" 
d="M133.5 54q-71.5 65 -71.5 190v212q0 125 71.5 190t206.5 65q136 0 207.5 -65t71.5 -190v-212q0 -125 -71.5 -190t-207.5 -65q-135 0 -206.5 65zM476.5 110.5q47.5 46.5 47.5 133.5v212q0 87 -47.5 133.5t-136.5 46.5q-88 0 -135.5 -46.5t-47.5 -133.5v-212
q0 -87 47.5 -133.5t135.5 -46.5q89 0 136.5 46.5zM207 862.5q25 33.5 73 33.5q20 0 37 -6.5t39 -18.5q18 -9 28.5 -13.5t21.5 -4.5q16 0 24 11.5t12 36.5h58q-3 -49 -27.5 -82.5t-66.5 -33.5q-21 0 -38 6.5t-38 18.5q-4 2 -14.5 7.5t-19 8t-16.5 2.5q-18 0 -27.5 -11.5
t-14.5 -38.5h-58q2 51 27 84.5z" />
    <glyph glyph-name="OE" unicode="&#x152;" horiz-adv-x="1045" 
d="M1003 75v-75h-243q-140 0 -196 71q-71 -82 -224 -82q-135 0 -206.5 65t-71.5 190v212q0 125 71.5 190t206.5 65q153 0 224 -82q56 71 196 71h238v-75h-238q-73 0 -107 -33.5t-34 -103.5v-100h331v-76h-331v-100q0 -70 34 -103.5t107 -33.5h243zM475.5 110.5
q47.5 46.5 47.5 133.5v212q0 87 -47.5 133.5t-135.5 46.5t-135.5 -46.5t-47.5 -133.5v-212q0 -87 47.5 -133.5t135.5 -46.5t135.5 46.5z" />
    <glyph glyph-name="P" unicode="P" horiz-adv-x="631" 
d="M92 700h292q109 0 164.5 -53t55.5 -157t-55.5 -157t-164.5 -53h-197v-280h-95v700zM381 355q60 0 94 35t34 100t-34 100t-94 35h-194v-270h194z" />
    <glyph glyph-name="Thorn" unicode="&#xde;" horiz-adv-x="631" 
d="M92 700h95v-137h197q108 0 164 -53.5t56 -156.5t-56 -156.5t-164 -53.5h-197v-143h-95v700zM381 218q60 0 94 35t34 100t-34 99.5t-94 34.5h-194v-269h194z" />
    <glyph glyph-name="Q" unicode="Q" horiz-adv-x="681" 
d="M568 76q-51 -63 -149 -80q24 -25 65 -38.5t95 -15.5v-81q-99 1 -160.5 32.5t-92.5 95.5q-129 4 -196.5 68.5t-67.5 186.5v212q0 125 71.5 190t206.5 65q136 0 207.5 -65t71.5 -190v-212q0 -105 -51 -168zM524 456q0 87 -47.5 133.5t-136.5 46.5q-88 0 -135.5 -46.5
t-47.5 -133.5v-212q0 -87 47.5 -133.5t135.5 -46.5q89 0 136.5 46.5t47.5 133.5v212z" />
    <glyph glyph-name="R" unicode="R" horiz-adv-x="670" 
d="M631 0h-101l-47 172q-14 50 -30.5 78t-45.5 42t-79 14h-141v-306h-95v700h294q108 0 162.5 -49.5t54.5 -144.5q0 -73 -35.5 -117t-100.5 -55q46 -16 71 -55t45 -108zM382 381q58 0 92 31.5t34 90.5t-33.5 90.5t-92.5 31.5h-195v-244h195z" />
    <glyph glyph-name="Racute" unicode="&#x154;" horiz-adv-x="670" 
d="M631 0h-101l-47 172q-14 50 -30.5 78t-45.5 42t-79 14h-141v-306h-95v700h294q108 0 162.5 -49.5t54.5 -144.5q0 -73 -35.5 -117t-100.5 -55q46 -16 71 -55t45 -108zM382 381q58 0 92 31.5t34 90.5t-33.5 90.5t-92.5 31.5h-195v-244h195zM375 923h95l-103 -149h-72z" />
    <glyph glyph-name="Rcaron" unicode="&#x158;" horiz-adv-x="670" 
d="M631 0h-101l-47 172q-14 50 -30.5 78t-45.5 42t-79 14h-141v-306h-95v700h294q108 0 162.5 -49.5t54.5 -144.5q0 -73 -35.5 -117t-100.5 -55q46 -16 71 -55t45 -108zM382 381q58 0 92 31.5t34 90.5t-33.5 90.5t-92.5 31.5h-195v-244h195zM240 859.5q-37 44.5 -66 67.5h82
q22 -18 45 -44t33 -46q9 19 32 45.5t45 44.5h81q-28 -22 -64.5 -66.5t-59.5 -86.5h-69q-22 41 -59 85.5z" />
    <glyph glyph-name="uni0156" unicode="&#x156;" horiz-adv-x="670" 
d="M631 0h-101l-47 172q-14 50 -30.5 78t-45.5 42t-79 14h-141v-306h-95v700h294q108 0 162.5 -49.5t54.5 -144.5q0 -73 -35.5 -117t-100.5 -55q46 -16 71 -55t45 -108zM382 381q58 0 92 31.5t34 90.5t-33.5 90.5t-92.5 31.5h-195v-244h195zM387 -82.5q16 -19.5 16 -52.5
q0 -85 -84 -151l-28 27q51 38 58 84q-11 -6 -26 -6q-20 0 -31.5 13.5t-11.5 36.5q0 25 18 46.5t45 21.5q28 0 44 -19.5z" />
    <glyph glyph-name="uni1E5A" unicode="&#x1e5a;" horiz-adv-x="670" 
d="M631 0h-101l-47 172q-14 50 -30.5 78t-45.5 42t-79 14h-141v-306h-95v700h294q108 0 162.5 -49.5t54.5 -144.5q0 -73 -35.5 -117t-100.5 -55q46 -16 71 -55t45 -108zM382 381q58 0 92 31.5t34 90.5t-33.5 90.5t-92.5 31.5h-195v-244h195zM304 -156.5q-16 16.5 -16 39.5
t16 39t39 16q22 0 38.5 -16.5t16.5 -38.5q0 -23 -16 -39.5t-39 -16.5t-39 16.5z" />
    <glyph glyph-name="uni1E5C" unicode="&#x1e5c;" horiz-adv-x="670" 
d="M631 0h-101l-47 172q-14 50 -30.5 78t-45.5 42t-79 14h-141v-306h-95v700h294q108 0 162.5 -49.5t54.5 -144.5q0 -73 -35.5 -117t-100.5 -55q46 -16 71 -55t45 -108zM382 381q58 0 92 31.5t34 90.5t-33.5 90.5t-92.5 31.5h-195v-244h195zM304 -156.5q-16 16.5 -16 39.5
t16 39t39 16q22 0 38.5 -16.5t16.5 -38.5q0 -23 -16 -39.5t-39 -16.5t-39 16.5zM180 856h307v-64h-307v64z" />
    <glyph glyph-name="uni1E5E" unicode="&#x1e5e;" horiz-adv-x="670" 
d="M631 0h-101l-47 172q-14 50 -30.5 78t-45.5 42t-79 14h-141v-306h-95v700h294q108 0 162.5 -49.5t54.5 -144.5q0 -73 -35.5 -117t-100.5 -55q46 -16 71 -55t45 -108zM382 381q58 0 92 31.5t34 90.5t-33.5 90.5t-92.5 31.5h-195v-244h195zM189 -78h307v-65h-307v65z" />
    <glyph glyph-name="S" unicode="S" horiz-adv-x="623" 
d="M151.5 18q-58.5 29 -109.5 96l64 55q42 -58 86 -81.5t111 -23.5q89 0 135.5 31.5t46.5 92.5q0 35 -18.5 57t-64.5 38.5t-136 34.5q-101 20 -149 68t-48 127q0 92 66.5 145t182.5 53q171 0 242 -113l-64 -52q-35 45 -77.5 67.5t-101.5 22.5q-72 0 -112.5 -32.5
t-40.5 -88.5q0 -50 40 -78.5t121 -44.5q93 -19 147 -42t81 -61t27 -100q0 -99 -69.5 -149.5t-204.5 -50.5q-96 0 -154.5 29z" />
    <glyph glyph-name="Sacute" unicode="&#x15a;" horiz-adv-x="623" 
d="M151.5 18q-58.5 29 -109.5 96l64 55q42 -58 86 -81.5t111 -23.5q89 0 135.5 31.5t46.5 92.5q0 35 -18.5 57t-64.5 38.5t-136 34.5q-101 20 -149 68t-48 127q0 92 66.5 145t182.5 53q171 0 242 -113l-64 -52q-35 45 -77.5 67.5t-101.5 22.5q-72 0 -112.5 -32.5
t-40.5 -88.5q0 -50 40 -78.5t121 -44.5q93 -19 147 -42t81 -61t27 -100q0 -99 -69.5 -149.5t-204.5 -50.5q-96 0 -154.5 29zM360 923h95l-103 -149h-72z" />
    <glyph glyph-name="Scaron" unicode="&#x160;" horiz-adv-x="623" 
d="M151.5 18q-58.5 29 -109.5 96l64 55q42 -58 86 -81.5t111 -23.5q89 0 135.5 31.5t46.5 92.5q0 35 -18.5 57t-64.5 38.5t-136 34.5q-101 20 -149 68t-48 127q0 92 66.5 145t182.5 53q171 0 242 -113l-64 -52q-35 45 -77.5 67.5t-101.5 22.5q-72 0 -112.5 -32.5
t-40.5 -88.5q0 -50 40 -78.5t121 -44.5q93 -19 147 -42t81 -61t27 -100q0 -99 -69.5 -149.5t-204.5 -50.5q-96 0 -154.5 29zM225 859.5q-37 44.5 -66 67.5h82q22 -18 45 -44t33 -46q9 19 32 45.5t45 44.5h81q-28 -22 -64.5 -66.5t-59.5 -86.5h-69q-22 41 -59 85.5z" />
    <glyph glyph-name="Scedilla" unicode="&#x15e;" horiz-adv-x="623" 
d="M522 48.5q-58 -50.5 -171 -57.5l-10 -34q42 -3 63 -24t21 -57q0 -85 -120 -85q-56 0 -95 21l15 50q42 -17 71 -17q30 0 44 7.5t14 23.5t-11.5 25t-44.5 9q-8 0 -32 -2l20 81q-86 3 -141 32.5t-103 92.5l64 55q42 -58 86 -81.5t111 -23.5q89 0 135.5 31.5t46.5 92.5
q0 35 -18.5 57t-64.5 38.5t-136 34.5q-101 20 -149 68t-48 127q0 92 66.5 145t182.5 53q171 0 242 -113l-64 -52q-35 45 -77.5 67.5t-101.5 22.5q-72 0 -112.5 -32.5t-40.5 -88.5q0 -50 40 -78.5t121 -44.5q93 -19 147 -42t81 -61t27 -100q0 -90 -58 -140.5z" />
    <glyph glyph-name="Scircumflex" unicode="&#x15c;" horiz-adv-x="623" 
d="M151.5 18q-58.5 29 -109.5 96l64 55q42 -58 86 -81.5t111 -23.5q89 0 135.5 31.5t46.5 92.5q0 35 -18.5 57t-64.5 38.5t-136 34.5q-101 20 -149 68t-48 127q0 92 66.5 145t182.5 53q171 0 242 -113l-64 -52q-35 45 -77.5 67.5t-101.5 22.5q-72 0 -112.5 -32.5
t-40.5 -88.5q0 -50 40 -78.5t121 -44.5q93 -19 147 -42t81 -61t27 -100q0 -99 -69.5 -149.5t-204.5 -50.5q-96 0 -154.5 29zM225 840.5q37 44.5 59 86.5h69q23 -43 59.5 -87t64.5 -66h-81q-22 17 -44.5 43t-32.5 45q-10 -19 -33.5 -45t-44.5 -43h-82q29 22 66 66.5z" />
    <glyph glyph-name="uni0218" unicode="&#x218;" horiz-adv-x="623" 
d="M151.5 18q-58.5 29 -109.5 96l64 55q42 -58 86 -81.5t111 -23.5q89 0 135.5 31.5t46.5 92.5q0 35 -18.5 57t-64.5 38.5t-136 34.5q-101 20 -149 68t-48 127q0 92 66.5 145t182.5 53q171 0 242 -113l-64 -52q-35 45 -77.5 67.5t-101.5 22.5q-72 0 -112.5 -32.5
t-40.5 -88.5q0 -50 40 -78.5t121 -44.5q93 -19 147 -42t81 -61t27 -100q0 -99 -69.5 -149.5t-204.5 -50.5q-96 0 -154.5 29zM364 -82.5q16 -19.5 16 -52.5q0 -85 -84 -151l-28 27q51 38 58 84q-11 -6 -26 -6q-20 0 -31.5 13.5t-11.5 36.5q0 25 18 46.5t45 21.5
q28 0 44 -19.5z" />
    <glyph glyph-name="uni1E60" unicode="&#x1e60;" horiz-adv-x="623" 
d="M151.5 18q-58.5 29 -109.5 96l64 55q42 -58 86 -81.5t111 -23.5q89 0 135.5 31.5t46.5 92.5q0 35 -18.5 57t-64.5 38.5t-136 34.5q-101 20 -149 68t-48 127q0 92 66.5 145t182.5 53q171 0 242 -113l-64 -52q-35 45 -77.5 67.5t-101.5 22.5q-72 0 -112.5 -32.5
t-40.5 -88.5q0 -50 40 -78.5t121 -44.5q93 -19 147 -42t81 -61t27 -100q0 -99 -69.5 -149.5t-204.5 -50.5q-96 0 -154.5 29zM280 786.5q-16 16.5 -16 39.5t16 39.5t39 16.5q22 0 38.5 -16.5t16.5 -39.5t-16.5 -39.5t-38.5 -16.5q-23 0 -39 16.5z" />
    <glyph glyph-name="uni1E62" unicode="&#x1e62;" horiz-adv-x="623" 
d="M151.5 18q-58.5 29 -109.5 96l64 55q42 -58 86 -81.5t111 -23.5q89 0 135.5 31.5t46.5 92.5q0 35 -18.5 57t-64.5 38.5t-136 34.5q-101 20 -149 68t-48 127q0 92 66.5 145t182.5 53q171 0 242 -113l-64 -52q-35 45 -77.5 67.5t-101.5 22.5q-72 0 -112.5 -32.5
t-40.5 -88.5q0 -50 40 -78.5t121 -44.5q93 -19 147 -42t81 -61t27 -100q0 -99 -69.5 -149.5t-204.5 -50.5q-96 0 -154.5 29zM281 -156.5q-16 16.5 -16 39.5t16 39t39 16q22 0 38.5 -16.5t16.5 -38.5q0 -23 -16 -39.5t-39 -16.5t-39 16.5z" />
    <glyph glyph-name="uni1E9E" unicode="&#x1e9e;" horiz-adv-x="654" 
d="M266 9v76q42 -21 102 -21q139 0 139 93v90q0 44 -40.5 67.5t-115.5 23.5h-26v82l170 167q-42 22 -87.5 35.5t-87.5 13.5q-70 0 -101.5 -38.5t-31.5 -124.5v-473h-95v473q0 119 54.5 178.5t172.5 59.5q67 0 134 -20.5t129 -59.5v-67l-161 -158q93 -10 137 -49t44 -110v-98
q0 -78 -57 -119t-166 -41q-64 0 -113 20z" />
    <glyph glyph-name="uni018F" unicode="&#x18f;" horiz-adv-x="687" 
d="M555 648q71 -63 71 -187v-225q0 -118 -73 -182.5t-205 -64.5q-134 0 -210 67.5t-76 189.5q0 73 35.5 109.5t109.5 36.5h324v69q0 88 -46 131.5t-142 43.5q-69 0 -116.5 -21t-86.5 -63l-60 54q85 105 265 105q139 0 210 -63zM482.5 109q48.5 45 48.5 127v80h-291
q-43 0 -63 -20t-20 -64q0 -78 51 -123t139 -45q87 0 135.5 45z" />
    <glyph glyph-name="T" unicode="T" horiz-adv-x="592" 
d="M248 625h-221v75h538v-75h-222v-625h-95v625z" />
    <glyph glyph-name="Tbar" unicode="&#x166;" horiz-adv-x="592" 
d="M343 625v-240h145v-68h-145v-317h-95v317h-144v68h144v240h-221v75h538v-75h-222z" />
    <glyph glyph-name="Tcaron" unicode="&#x164;" horiz-adv-x="592" 
d="M248 625h-221v75h538v-75h-222v-625h-95v625zM202 859.5q-37 44.5 -66 67.5h82q22 -18 45 -44t33 -46q9 19 32 45.5t45 44.5h81q-28 -22 -64.5 -66.5t-59.5 -86.5h-69q-22 41 -59 85.5z" />
    <glyph glyph-name="uni0162" unicode="&#x162;" horiz-adv-x="592" 
d="M329 0l-12 -43q42 -3 62.5 -24t20.5 -57q0 -85 -119 -85q-56 0 -95 21l15 50q42 -17 71 -17q30 0 44 7.5t14 23.5q0 15 -12 24.5t-45 9.5q-7 0 -31 -2l21 92h-15v625h-221v75h538v-75h-222v-625h-14z" />
    <glyph glyph-name="uni021A" unicode="&#x21a;" horiz-adv-x="592" 
d="M248 625h-221v75h538v-75h-222v-625h-95v625zM340 -82.5q16 -19.5 16 -52.5q0 -85 -84 -151l-28 27q51 38 58 84q-11 -6 -26 -6q-20 0 -31.5 13.5t-11.5 36.5q0 25 18 46.5t45 21.5q28 0 44 -19.5z" />
    <glyph glyph-name="uni1E6C" unicode="&#x1e6c;" horiz-adv-x="592" 
d="M248 625h-221v75h538v-75h-222v-625h-95v625zM257 -156.5q-16 16.5 -16 39.5t16 39t39 16q22 0 38.5 -16.5t16.5 -38.5q0 -23 -16 -39.5t-39 -16.5t-39 16.5z" />
    <glyph glyph-name="uni1E6E" unicode="&#x1e6e;" horiz-adv-x="592" 
d="M248 625h-221v75h538v-75h-222v-625h-95v625zM142 -78h307v-65h-307v65z" />
    <glyph glyph-name="U" unicode="U" horiz-adv-x="671" 
d="M137.5 43.5q-70.5 55.5 -70.5 152.5v504h95v-504q0 -63 45.5 -97.5t128.5 -34.5t128.5 34t45.5 98v504h95v-504q0 -97 -70.5 -152.5t-198.5 -55.5t-198.5 55.5z" />
    <glyph glyph-name="Uacute" unicode="&#xda;" horiz-adv-x="671" 
d="M137.5 43.5q-70.5 55.5 -70.5 152.5v504h95v-504q0 -63 45.5 -97.5t128.5 -34.5t128.5 34t45.5 98v504h95v-504q0 -97 -70.5 -152.5t-198.5 -55.5t-198.5 55.5zM377 923h95l-103 -149h-72z" />
    <glyph glyph-name="Ubreve" unicode="&#x16c;" horiz-adv-x="671" 
d="M137.5 43.5q-70.5 55.5 -70.5 152.5v504h95v-504q0 -63 45.5 -97.5t128.5 -34.5t128.5 34t45.5 98v504h95v-504q0 -97 -70.5 -152.5t-198.5 -55.5t-198.5 55.5zM224.5 808q-41.5 41 -41.5 109h64q3 -40 26 -63t63 -23t63.5 23t25.5 63h64q0 -68 -41.5 -109t-111.5 -41
t-111.5 41z" />
    <glyph glyph-name="uni01D3" unicode="&#x1d3;" horiz-adv-x="671" 
d="M137.5 43.5q-70.5 55.5 -70.5 152.5v504h95v-504q0 -63 45.5 -97.5t128.5 -34.5t128.5 34t45.5 98v504h95v-504q0 -97 -70.5 -152.5t-198.5 -55.5t-198.5 55.5zM242 859.5q-37 44.5 -66 67.5h82q22 -18 45 -44t33 -46q9 19 32 45.5t45 44.5h81q-28 -22 -64.5 -66.5
t-59.5 -86.5h-69q-22 41 -59 85.5z" />
    <glyph glyph-name="Ucircumflex" unicode="&#xdb;" horiz-adv-x="671" 
d="M137.5 43.5q-70.5 55.5 -70.5 152.5v504h95v-504q0 -63 45.5 -97.5t128.5 -34.5t128.5 34t45.5 98v504h95v-504q0 -97 -70.5 -152.5t-198.5 -55.5t-198.5 55.5zM242 840.5q37 44.5 59 86.5h69q23 -43 59.5 -87t64.5 -66h-81q-22 17 -44.5 43t-32.5 45q-10 -19 -33.5 -45
t-44.5 -43h-82q29 22 66 66.5z" />
    <glyph glyph-name="Udieresis" unicode="&#xdc;" horiz-adv-x="671" 
d="M137.5 43.5q-70.5 55.5 -70.5 152.5v504h95v-504q0 -63 45.5 -97.5t128.5 -34.5t128.5 34t45.5 98v504h95v-504q0 -97 -70.5 -152.5t-198.5 -55.5t-198.5 55.5zM217.5 785q-14.5 15 -14.5 35t14.5 34.5t34.5 14.5q19 0 34 -14.5t15 -34.5t-14.5 -35t-34.5 -15t-34.5 15z
M385.5 785q-14.5 15 -14.5 35t14.5 34.5t35.5 14.5q19 0 34 -14.5t15 -34.5t-14.5 -35t-34.5 -15q-21 0 -35.5 15z" />
    <glyph glyph-name="uni01D7" unicode="&#x1d7;" horiz-adv-x="671" 
d="M137.5 43.5q-70.5 55.5 -70.5 152.5v504h95v-504q0 -63 45.5 -97.5t128.5 -34.5t128.5 34t45.5 98v504h95v-504q0 -97 -70.5 -152.5t-198.5 -55.5t-198.5 55.5zM362 1027h91l-86 -116h-68zM217.5 785q-14.5 15 -14.5 35t14.5 34.5t34.5 14.5t34.5 -14.5t14.5 -34.5
t-14.5 -35t-34.5 -15t-34.5 15zM385.5 785q-14.5 15 -14.5 35t14.5 34.5t35.5 14.5q20 0 34.5 -14.5t14.5 -34.5t-14.5 -35t-34.5 -15q-21 0 -35.5 15z" />
    <glyph glyph-name="uni01D9" unicode="&#x1d9;" horiz-adv-x="671" 
d="M137.5 43.5q-70.5 55.5 -70.5 152.5v504h95v-504q0 -63 45.5 -97.5t128.5 -34.5t128.5 34t45.5 98v504h95v-504q0 -97 -70.5 -152.5t-198.5 -55.5t-198.5 55.5zM248 981.5q-34 35.5 -61 53.5h76q20 -12 41.5 -33.5t31.5 -37.5q9 16 30.5 37t41.5 34h76q-26 -17 -60 -53
t-56 -70h-65q-21 34 -55 69.5zM217.5 785q-14.5 15 -14.5 35t14.5 34.5t34.5 14.5t34.5 -14.5t14.5 -34.5t-14.5 -35t-34.5 -15t-34.5 15zM385.5 785q-14.5 15 -14.5 35t14.5 34.5t35.5 14.5q20 0 34.5 -14.5t14.5 -34.5t-14.5 -35t-34.5 -15q-21 0 -35.5 15z" />
    <glyph glyph-name="uni01DB" unicode="&#x1db;" horiz-adv-x="671" 
d="M137.5 43.5q-70.5 55.5 -70.5 152.5v504h95v-504q0 -63 45.5 -97.5t128.5 -34.5t128.5 34t45.5 98v504h95v-504q0 -97 -70.5 -152.5t-198.5 -55.5t-198.5 55.5zM215 1027h92l63 -116h-69zM217.5 785q-14.5 15 -14.5 35t14.5 34.5t34.5 14.5t34.5 -14.5t14.5 -34.5
t-14.5 -35t-34.5 -15t-34.5 15zM385.5 785q-14.5 15 -14.5 35t14.5 34.5t35.5 14.5q20 0 34.5 -14.5t14.5 -34.5t-14.5 -35t-34.5 -15q-21 0 -35.5 15z" />
    <glyph glyph-name="uni01D5" unicode="&#x1d5;" horiz-adv-x="671" 
d="M137.5 43.5q-70.5 55.5 -70.5 152.5v504h95v-504q0 -63 45.5 -97.5t128.5 -34.5t128.5 34t45.5 98v504h95v-504q0 -97 -70.5 -152.5t-198.5 -55.5t-198.5 55.5zM182 988h307v-64h-307v64zM217.5 785q-14.5 15 -14.5 35t14.5 34.5t34.5 14.5t34.5 -14.5t14.5 -34.5
t-14.5 -35t-34.5 -15t-34.5 15zM385.5 785q-14.5 15 -14.5 35t14.5 34.5t35.5 14.5q20 0 34.5 -14.5t14.5 -34.5t-14.5 -35t-34.5 -15q-21 0 -35.5 15z" />
    <glyph glyph-name="uni1EE4" unicode="&#x1ee4;" horiz-adv-x="671" 
d="M137.5 43.5q-70.5 55.5 -70.5 152.5v504h95v-504q0 -63 45.5 -97.5t128.5 -34.5t128.5 34t45.5 98v504h95v-504q0 -97 -70.5 -152.5t-198.5 -55.5t-198.5 55.5zM297 -156.5q-16 16.5 -16 39.5t16 39t39 16q22 0 38.5 -16.5t16.5 -38.5q0 -23 -16 -39.5t-39 -16.5
t-39 16.5z" />
    <glyph glyph-name="Ugrave" unicode="&#xd9;" horiz-adv-x="671" 
d="M137.5 43.5q-70.5 55.5 -70.5 152.5v504h95v-504q0 -63 45.5 -97.5t128.5 -34.5t128.5 34t45.5 98v504h95v-504q0 -97 -70.5 -152.5t-198.5 -55.5t-198.5 55.5zM196 923h95l81 -149h-73z" />
    <glyph glyph-name="uni1EE6" unicode="&#x1ee6;" horiz-adv-x="671" 
d="M137.5 43.5q-70.5 55.5 -70.5 152.5v504h95v-504q0 -63 45.5 -97.5t128.5 -34.5t128.5 34t45.5 98v504h95v-504q0 -97 -70.5 -152.5t-198.5 -55.5t-198.5 55.5zM365 811v-37h-67v70q44 4 62 14.5t18 29.5q0 20 -12 28t-35 8q-26 0 -54 -10l-15 49q36 17 78 17
q50 0 79.5 -21.5t29.5 -64.5q0 -65 -84 -83z" />
    <glyph glyph-name="Uhorn" unicode="&#x1af;" horiz-adv-x="736" 
d="M724 589.5q-37 -43.5 -119 -47.5v-346q0 -97 -70.5 -152.5t-198.5 -55.5t-198.5 55.5t-70.5 152.5v504h95v-504q0 -63 45.5 -97.5t128.5 -34.5t128.5 34t45.5 98v504h95v-109q44 4 60.5 37t17.5 102h80q-2 -97 -39 -140.5z" />
    <glyph glyph-name="uni1EE8" unicode="&#x1ee8;" horiz-adv-x="736" 
d="M724 589.5q-37 -43.5 -119 -47.5v-346q0 -97 -70.5 -152.5t-198.5 -55.5t-198.5 55.5t-70.5 152.5v504h95v-504q0 -63 45.5 -97.5t128.5 -34.5t128.5 34t45.5 98v504h95v-109q44 4 60.5 37t17.5 102h80q-2 -97 -39 -140.5zM377 923h95l-103 -149h-72z" />
    <glyph glyph-name="uni1EF0" unicode="&#x1ef0;" horiz-adv-x="736" 
d="M724 589.5q-37 -43.5 -119 -47.5v-346q0 -97 -70.5 -152.5t-198.5 -55.5t-198.5 55.5t-70.5 152.5v504h95v-504q0 -63 45.5 -97.5t128.5 -34.5t128.5 34t45.5 98v504h95v-109q44 4 60.5 37t17.5 102h80q-2 -97 -39 -140.5zM297 -156.5q-16 16.5 -16 39.5t16 39t39 16
q22 0 38.5 -16.5t16.5 -38.5q0 -23 -16 -39.5t-39 -16.5t-39 16.5z" />
    <glyph glyph-name="uni1EEA" unicode="&#x1eea;" horiz-adv-x="736" 
d="M724 589.5q-37 -43.5 -119 -47.5v-346q0 -97 -70.5 -152.5t-198.5 -55.5t-198.5 55.5t-70.5 152.5v504h95v-504q0 -63 45.5 -97.5t128.5 -34.5t128.5 34t45.5 98v504h95v-109q44 4 60.5 37t17.5 102h80q-2 -97 -39 -140.5zM196 923h95l81 -149h-73z" />
    <glyph glyph-name="uni1EEC" unicode="&#x1eec;" horiz-adv-x="736" 
d="M724 589.5q-37 -43.5 -119 -47.5v-346q0 -97 -70.5 -152.5t-198.5 -55.5t-198.5 55.5t-70.5 152.5v504h95v-504q0 -63 45.5 -97.5t128.5 -34.5t128.5 34t45.5 98v504h95v-109q44 4 60.5 37t17.5 102h80q-2 -97 -39 -140.5zM365 811v-37h-67v70q44 4 62 14.5t18 29.5
q0 20 -12 28t-35 8q-26 0 -54 -10l-15 49q36 17 78 17q50 0 79.5 -21.5t29.5 -64.5q0 -65 -84 -83z" />
    <glyph glyph-name="uni1EEE" unicode="&#x1eee;" horiz-adv-x="736" 
d="M724 589.5q-37 -43.5 -119 -47.5v-346q0 -97 -70.5 -152.5t-198.5 -55.5t-198.5 55.5t-70.5 152.5v504h95v-504q0 -63 45.5 -97.5t128.5 -34.5t128.5 34t45.5 98v504h95v-109q44 4 60.5 37t17.5 102h80q-2 -97 -39 -140.5zM203 862.5q25 33.5 73 33.5q20 0 37 -6.5
t39 -18.5q18 -9 28.5 -13.5t21.5 -4.5q16 0 24 11.5t12 36.5h58q-3 -49 -27.5 -82.5t-66.5 -33.5q-21 0 -38 6.5t-38 18.5q-4 2 -14.5 7.5t-19 8t-16.5 2.5q-18 0 -27.5 -11.5t-14.5 -38.5h-58q2 51 27 84.5z" />
    <glyph glyph-name="Uhungarumlaut" unicode="&#x170;" horiz-adv-x="671" 
d="M137.5 43.5q-70.5 55.5 -70.5 152.5v504h95v-504q0 -63 45.5 -97.5t128.5 -34.5t128.5 34t45.5 98v504h95v-504q0 -97 -70.5 -152.5t-198.5 -55.5t-198.5 55.5zM284 923h83l-81 -149h-67zM449 923h83l-81 -149h-67z" />
    <glyph glyph-name="Umacron" unicode="&#x16a;" horiz-adv-x="671" 
d="M137.5 43.5q-70.5 55.5 -70.5 152.5v504h95v-504q0 -63 45.5 -97.5t128.5 -34.5t128.5 34t45.5 98v504h95v-504q0 -97 -70.5 -152.5t-198.5 -55.5t-198.5 55.5zM182 856h307v-64h-307v64z" />
    <glyph glyph-name="Uogonek" unicode="&#x172;" horiz-adv-x="671" 
d="M605 700v-504q0 -91 -62.5 -145.5t-176.5 -61.5q-36 -52 -36 -94q0 -24 14.5 -35.5t37.5 -11.5q21 0 54 14l15 -51q-34 -22 -77 -22q-64 0 -91.5 29t-27.5 64q0 57 45 107q-112 8 -172.5 62.5t-60.5 144.5v504h95v-504q0 -63 45.5 -97.5t128.5 -34.5t128.5 34t45.5 98
v504h95z" />
    <glyph glyph-name="Uring" unicode="&#x16e;" horiz-adv-x="671" 
d="M137.5 43.5q-70.5 55.5 -70.5 152.5v504h95v-504q0 -63 45.5 -97.5t128.5 -34.5t128.5 34t45.5 98v504h95v-504q0 -97 -70.5 -152.5t-198.5 -55.5t-198.5 55.5zM261.5 787q-27.5 26 -27.5 70q0 43 27.5 69t74.5 26t74.5 -26t27.5 -69q0 -44 -27.5 -70t-74.5 -26t-74.5 26
zM372 820.5q13 13.5 13 36.5t-13 36t-36 13t-36 -13t-13 -36t13 -36.5t36 -13.5t36 13.5z" />
    <glyph glyph-name="Utilde" unicode="&#x168;" horiz-adv-x="671" 
d="M137.5 43.5q-70.5 55.5 -70.5 152.5v504h95v-504q0 -63 45.5 -97.5t128.5 -34.5t128.5 34t45.5 98v504h95v-504q0 -97 -70.5 -152.5t-198.5 -55.5t-198.5 55.5zM203 862.5q25 33.5 73 33.5q20 0 37 -6.5t39 -18.5q18 -9 28.5 -13.5t21.5 -4.5q16 0 24 11.5t12 36.5h58
q-3 -49 -27.5 -82.5t-66.5 -33.5q-21 0 -38 6.5t-38 18.5q-4 2 -14.5 7.5t-19 8t-16.5 2.5q-18 0 -27.5 -11.5t-14.5 -38.5h-58q2 51 27 84.5z" />
    <glyph glyph-name="V" unicode="V" horiz-adv-x="651" 
d="M247.5 19.5q-29.5 30.5 -50.5 104.5l-170 576h95l166 -575q7 -25 15.5 -36.5t21.5 -11.5t21 11t16 37l166 575h96l-170 -576q-22 -74 -51.5 -104.5t-77.5 -30.5t-77.5 30.5z" />
    <glyph glyph-name="W" unicode="W" horiz-adv-x="904" 
d="M874 700l-160 -700h-30q-62 0 -93 24t-52 89l-87 272l-88 -272q-20 -63 -51.5 -88t-92.5 -25h-30l-160 700h90l139 -614q18 10 30 45l163 479l162 -479q13 -36 30 -44l139 613h91z" />
    <glyph glyph-name="Wacute" unicode="&#x1e82;" horiz-adv-x="904" 
d="M874 700l-160 -700h-30q-62 0 -93 24t-52 89l-87 272l-88 -272q-20 -63 -51.5 -88t-92.5 -25h-30l-160 700h90l139 -614q18 10 30 45l163 479l162 -479q13 -36 30 -44l139 613h91zM493 923h95l-103 -149h-72z" />
    <glyph glyph-name="Wcircumflex" unicode="&#x174;" horiz-adv-x="904" 
d="M874 700l-160 -700h-30q-62 0 -93 24t-52 89l-87 272l-88 -272q-20 -63 -51.5 -88t-92.5 -25h-30l-160 700h90l139 -614q18 10 30 45l163 479l162 -479q13 -36 30 -44l139 613h91zM358 840.5q37 44.5 59 86.5h69q23 -43 59.5 -87t64.5 -66h-81q-22 17 -44.5 43t-32.5 45
q-10 -19 -33.5 -45t-44.5 -43h-82q29 22 66 66.5z" />
    <glyph glyph-name="Wdieresis" unicode="&#x1e84;" horiz-adv-x="904" 
d="M874 700l-160 -700h-30q-62 0 -93 24t-52 89l-87 272l-88 -272q-20 -63 -51.5 -88t-92.5 -25h-30l-160 700h90l139 -614q18 10 30 45l163 479l162 -479q13 -36 30 -44l139 613h91zM333.5 785q-14.5 15 -14.5 35t14.5 34.5t34.5 14.5q19 0 34 -14.5t15 -34.5t-14.5 -35
t-34.5 -15t-34.5 15zM501.5 785q-14.5 15 -14.5 35t14.5 34.5t35.5 14.5q19 0 34 -14.5t15 -34.5t-14.5 -35t-34.5 -15q-21 0 -35.5 15z" />
    <glyph glyph-name="Wgrave" unicode="&#x1e80;" horiz-adv-x="904" 
d="M874 700l-160 -700h-30q-62 0 -93 24t-52 89l-87 272l-88 -272q-20 -63 -51.5 -88t-92.5 -25h-30l-160 700h90l139 -614q18 10 30 45l163 479l162 -479q13 -36 30 -44l139 613h91zM312 923h95l81 -149h-73z" />
    <glyph glyph-name="X" unicode="X" horiz-adv-x="587" 
d="M353 346l227 -346h-109l-180 275l-181 -275h-107l234 357l-224 343h107l179 -272l179 272h106z" />
    <glyph glyph-name="Y" unicode="Y" horiz-adv-x="584" 
d="M243 295l-236 405h105l181 -317l178 317h106l-239 -405v-295h-95v295z" />
    <glyph glyph-name="Yacute" unicode="&#xdd;" horiz-adv-x="584" 
d="M243 295l-236 405h105l181 -317l178 317h106l-239 -405v-295h-95v295zM333 923h95l-103 -149h-72z" />
    <glyph glyph-name="Ycircumflex" unicode="&#x176;" horiz-adv-x="584" 
d="M243 295l-236 405h105l181 -317l178 317h106l-239 -405v-295h-95v295zM198 840.5q37 44.5 59 86.5h69q23 -43 59.5 -87t64.5 -66h-81q-22 17 -44.5 43t-32.5 45q-10 -19 -33.5 -45t-44.5 -43h-82q29 22 66 66.5z" />
    <glyph glyph-name="Ydieresis" unicode="&#x178;" horiz-adv-x="584" 
d="M243 295l-236 405h105l181 -317l178 317h106l-239 -405v-295h-95v295zM173.5 785q-14.5 15 -14.5 35t14.5 34.5t34.5 14.5q19 0 34 -14.5t15 -34.5t-14.5 -35t-34.5 -15t-34.5 15zM341.5 785q-14.5 15 -14.5 35t14.5 34.5t35.5 14.5q19 0 34 -14.5t15 -34.5t-14.5 -35
t-34.5 -15q-21 0 -35.5 15z" />
    <glyph glyph-name="uni1E8E" unicode="&#x1e8e;" horiz-adv-x="584" 
d="M243 295l-236 405h105l181 -317l178 317h106l-239 -405v-295h-95v295zM253 786.5q-16 16.5 -16 39.5t16 39.5t39 16.5q22 0 38.5 -16.5t16.5 -39.5t-16.5 -39.5t-38.5 -16.5q-23 0 -39 16.5z" />
    <glyph glyph-name="uni1EF4" unicode="&#x1ef4;" horiz-adv-x="584" 
d="M243 295l-236 405h105l181 -317l178 317h106l-239 -405v-295h-95v295zM253 -156.5q-16 16.5 -16 39.5t16 39t39 16q22 0 38.5 -16.5t16.5 -38.5q0 -23 -16 -39.5t-39 -16.5t-39 16.5z" />
    <glyph glyph-name="Ygrave" unicode="&#x1ef2;" horiz-adv-x="584" 
d="M243 295l-236 405h105l181 -317l178 317h106l-239 -405v-295h-95v295zM152 923h95l81 -149h-73z" />
    <glyph glyph-name="uni1EF6" unicode="&#x1ef6;" horiz-adv-x="584" 
d="M243 295l-236 405h105l181 -317l178 317h106l-239 -405v-295h-95v295zM321 811v-37h-67v70q44 4 62 14.5t18 29.5q0 20 -12 28t-35 8q-26 0 -54 -10l-15 49q36 17 78 17q50 0 79.5 -21.5t29.5 -64.5q0 -65 -84 -83z" />
    <glyph glyph-name="uni1EF8" unicode="&#x1ef8;" horiz-adv-x="584" 
d="M243 295l-236 405h105l181 -317l178 317h106l-239 -405v-295h-95v295zM159 862.5q25 33.5 73 33.5q20 0 37 -6.5t39 -18.5q18 -9 28.5 -13.5t21.5 -4.5q16 0 24 11.5t12 36.5h58q-3 -49 -27.5 -82.5t-66.5 -33.5q-21 0 -38 6.5t-38 18.5q-4 2 -14.5 7.5t-19 8t-16.5 2.5
q-18 0 -27.5 -11.5t-14.5 -38.5h-58q2 51 27 84.5z" />
    <glyph glyph-name="Z" unicode="Z" horiz-adv-x="587" 
d="M557 75v-75h-412q-57 0 -85 24t-28 75v47l407 479h-392v75h493v-84l-422 -499v-7q0 -20 10.5 -27.5t33.5 -7.5h395z" />
    <glyph glyph-name="Zacute" unicode="&#x179;" horiz-adv-x="587" 
d="M557 75v-75h-412q-57 0 -85 24t-28 75v47l407 479h-392v75h493v-84l-422 -499v-7q0 -20 10.5 -27.5t33.5 -7.5h395zM335 923h95l-103 -149h-72z" />
    <glyph glyph-name="Zcaron" unicode="&#x17d;" horiz-adv-x="587" 
d="M557 75v-75h-412q-57 0 -85 24t-28 75v47l407 479h-392v75h493v-84l-422 -499v-7q0 -20 10.5 -27.5t33.5 -7.5h395zM200 859.5q-37 44.5 -66 67.5h82q22 -18 45 -44t33 -46q9 19 32 45.5t45 44.5h81q-28 -22 -64.5 -66.5t-59.5 -86.5h-69q-22 41 -59 85.5z" />
    <glyph glyph-name="Zdotaccent" unicode="&#x17b;" horiz-adv-x="587" 
d="M557 75v-75h-412q-57 0 -85 24t-28 75v47l407 479h-392v75h493v-84l-422 -499v-7q0 -20 10.5 -27.5t33.5 -7.5h395zM255 786.5q-16 16.5 -16 39.5t16 39.5t39 16.5q22 0 38.5 -16.5t16.5 -39.5t-16.5 -39.5t-38.5 -16.5q-23 0 -39 16.5z" />
    <glyph glyph-name="uni1E92" unicode="&#x1e92;" horiz-adv-x="587" 
d="M557 75v-75h-412q-57 0 -85 24t-28 75v47l407 479h-392v75h493v-84l-422 -499v-7q0 -20 10.5 -27.5t33.5 -7.5h395zM257 -156.5q-16 16.5 -16 39.5t16 39t39 16q22 0 38.5 -16.5t16.5 -38.5q0 -23 -16 -39.5t-39 -16.5t-39 16.5z" />
    <glyph glyph-name="a" unicode="a" horiz-adv-x="529" 
d="M463 70.5q8 -13.5 29 -29.5l-59 -52q-51 26 -62 74q-24 -34 -66.5 -54t-97.5 -20q-75 0 -116 35.5t-41 102.5q0 69 48 103t132 43l68 8q43 5 56.5 15.5t12.5 36.5q-4 39 -31.5 62t-83.5 23q-41 0 -70 -13.5t-53 -43.5l-60 43q25 38 69.5 57.5t113.5 19.5q101 0 152 -42
t51 -122v-212q0 -21 8 -34.5zM329.5 87q38.5 33 38.5 84v67q-23 -13 -71 -17l-59 -6q-104 -12 -104 -85q0 -37 24 -56.5t70 -19.5q63 0 101.5 33z" />
    <glyph glyph-name="aacute" unicode="&#xe1;" horiz-adv-x="529" 
d="M463 70.5q8 -13.5 29 -29.5l-59 -52q-51 26 -62 74q-24 -34 -66.5 -54t-97.5 -20q-75 0 -116 35.5t-41 102.5q0 69 48 103t132 43l68 8q43 5 56.5 15.5t12.5 36.5q-4 39 -31.5 62t-83.5 23q-41 0 -70 -13.5t-53 -43.5l-60 43q25 38 69.5 57.5t113.5 19.5q101 0 152 -42
t51 -122v-212q0 -21 8 -34.5zM329.5 87q38.5 33 38.5 84v67q-23 -13 -71 -17l-59 -6q-104 -12 -104 -85q0 -37 24 -56.5t70 -19.5q63 0 101.5 33zM314 693h95l-103 -149h-72z" />
    <glyph glyph-name="abreve" unicode="&#x103;" horiz-adv-x="529" 
d="M463 70.5q8 -13.5 29 -29.5l-59 -52q-51 26 -62 74q-24 -34 -66.5 -54t-97.5 -20q-75 0 -116 35.5t-41 102.5q0 69 48 103t132 43l68 8q43 5 56.5 15.5t12.5 36.5q-4 39 -31.5 62t-83.5 23q-41 0 -70 -13.5t-53 -43.5l-60 43q25 38 69.5 57.5t113.5 19.5q101 0 152 -42
t51 -122v-212q0 -21 8 -34.5zM329.5 87q38.5 33 38.5 84v67q-23 -13 -71 -17l-59 -6q-104 -12 -104 -85q0 -37 24 -56.5t70 -19.5q63 0 101.5 33zM161.5 578q-41.5 41 -41.5 109h64q3 -40 26 -63t63 -23t63.5 23t25.5 63h64q0 -68 -41.5 -109t-111.5 -41t-111.5 41z" />
    <glyph glyph-name="uni1EAF" unicode="&#x1eaf;" horiz-adv-x="529" 
d="M463 70.5q8 -13.5 29 -29.5l-59 -52q-51 26 -62 74q-24 -34 -66.5 -54t-97.5 -20q-75 0 -116 35.5t-41 102.5q0 69 48 103t132 43l68 8q43 5 56.5 15.5t12.5 36.5q-4 39 -31.5 62t-83.5 23q-41 0 -70 -13.5t-53 -43.5l-60 43q25 38 69.5 57.5t113.5 19.5q101 0 152 -42
t51 -122v-212q0 -21 8 -34.5zM329.5 87q38.5 33 38.5 84v67q-23 -13 -71 -17l-59 -6q-104 -12 -104 -85q0 -37 24 -56.5t70 -19.5q63 0 101.5 33zM299 848h91l-86 -116h-68zM161.5 578q-41.5 41 -41.5 109h64q3 -40 26 -63t63 -23t63.5 23t25.5 63h64q0 -68 -41.5 -109
t-111.5 -41t-111.5 41z" />
    <glyph glyph-name="uni1EB7" unicode="&#x1eb7;" horiz-adv-x="529" 
d="M463 70.5q8 -13.5 29 -29.5l-59 -52q-51 26 -62 74q-24 -34 -66.5 -54t-97.5 -20q-75 0 -116 35.5t-41 102.5q0 69 48 103t132 43l68 8q43 5 56.5 15.5t12.5 36.5q-4 39 -31.5 62t-83.5 23q-41 0 -70 -13.5t-53 -43.5l-60 43q25 38 69.5 57.5t113.5 19.5q101 0 152 -42
t51 -122v-212q0 -21 8 -34.5zM329.5 87q38.5 33 38.5 84v67q-23 -13 -71 -17l-59 -6q-104 -12 -104 -85q0 -37 24 -56.5t70 -19.5q63 0 101.5 33zM234 -156.5q-16 16.5 -16 39.5t16 39t39 16q22 0 38.5 -16.5t16.5 -38.5q0 -23 -16 -39.5t-39 -16.5t-39 16.5zM161.5 578
q-41.5 41 -41.5 109h64q3 -40 26 -63t63 -23t63.5 23t25.5 63h64q0 -68 -41.5 -109t-111.5 -41t-111.5 41z" />
    <glyph glyph-name="uni1EB1" unicode="&#x1eb1;" horiz-adv-x="529" 
d="M463 70.5q8 -13.5 29 -29.5l-59 -52q-51 26 -62 74q-24 -34 -66.5 -54t-97.5 -20q-75 0 -116 35.5t-41 102.5q0 69 48 103t132 43l68 8q43 5 56.5 15.5t12.5 36.5q-4 39 -31.5 62t-83.5 23q-41 0 -70 -13.5t-53 -43.5l-60 43q25 38 69.5 57.5t113.5 19.5q101 0 152 -42
t51 -122v-212q0 -21 8 -34.5zM329.5 87q38.5 33 38.5 84v67q-23 -13 -71 -17l-59 -6q-104 -12 -104 -85q0 -37 24 -56.5t70 -19.5q63 0 101.5 33zM154 848h91l63 -116h-68zM161.5 578q-41.5 41 -41.5 109h64q3 -40 26 -63t63 -23t63.5 23t25.5 63h64q0 -68 -41.5 -109
t-111.5 -41t-111.5 41z" />
    <glyph glyph-name="uni1EB3" unicode="&#x1eb3;" horiz-adv-x="529" 
d="M463 70.5q8 -13.5 29 -29.5l-59 -52q-51 26 -62 74q-24 -34 -66.5 -54t-97.5 -20q-75 0 -116 35.5t-41 102.5q0 69 48 103t132 43l68 8q43 5 56.5 15.5t12.5 36.5q-4 39 -31.5 62t-83.5 23q-41 0 -70 -13.5t-53 -43.5l-60 43q25 38 69.5 57.5t113.5 19.5q101 0 152 -42
t51 -122v-212q0 -21 8 -34.5zM329.5 87q38.5 33 38.5 84v67q-23 -13 -71 -17l-59 -6q-104 -12 -104 -85q0 -37 24 -56.5t70 -19.5q63 0 101.5 33zM226 826l-13 45q30 13 70 13q43 0 67.5 -17.5t24.5 -54.5q0 -31 -18.5 -47t-51.5 -24v-34h-59v63q39 5 55 12.5t16 23.5
q0 18 -10.5 24t-31.5 6q-17 0 -49 -10zM426 687q0 -68 -41.5 -109t-111.5 -41t-111.5 41t-41.5 109h64q2 -40 25.5 -63t63.5 -23t63.5 23t25.5 63h64z" />
    <glyph glyph-name="uni1EB5" unicode="&#x1eb5;" horiz-adv-x="529" 
d="M463 70.5q8 -13.5 29 -29.5l-59 -52q-51 26 -62 74q-24 -34 -66.5 -54t-97.5 -20q-75 0 -116 35.5t-41 102.5q0 69 48 103t132 43l68 8q43 5 56.5 15.5t12.5 36.5q-4 39 -31.5 62t-83.5 23q-41 0 -70 -13.5t-53 -43.5l-60 43q25 38 69.5 57.5t113.5 19.5q101 0 152 -42
t51 -122v-212q0 -21 8 -34.5zM329.5 87q38.5 33 38.5 84v67q-23 -13 -71 -17l-59 -6q-104 -12 -104 -85q0 -37 24 -56.5t70 -19.5q63 0 101.5 33zM149 807q24 30 68 30q18 0 33 -5.5t37 -16.5q30 -17 46 -17q15 0 23 10.5t12 33.5h53q-3 -43 -26.5 -73t-61.5 -30
q-19 0 -34.5 5.5t-35.5 16.5l-12 6t-18.5 7.5t-15.5 2.5q-17 0 -26 -10.5t-14 -34.5h-54q2 45 26 75zM161.5 578q-41.5 41 -41.5 109h64q3 -40 26 -63t63 -23t63.5 23t25.5 63h64q0 -68 -41.5 -109t-111.5 -41t-111.5 41z" />
    <glyph glyph-name="uni01CE" unicode="&#x1ce;" horiz-adv-x="529" 
d="M463 70.5q8 -13.5 29 -29.5l-59 -52q-51 26 -62 74q-24 -34 -66.5 -54t-97.5 -20q-75 0 -116 35.5t-41 102.5q0 69 48 103t132 43l68 8q43 5 56.5 15.5t12.5 36.5q-4 39 -31.5 62t-83.5 23q-41 0 -70 -13.5t-53 -43.5l-60 43q25 38 69.5 57.5t113.5 19.5q101 0 152 -42
t51 -122v-212q0 -21 8 -34.5zM329.5 87q38.5 33 38.5 84v67q-23 -13 -71 -17l-59 -6q-104 -12 -104 -85q0 -37 24 -56.5t70 -19.5q63 0 101.5 33zM179 629.5q-37 44.5 -66 67.5h82q22 -18 45 -44t33 -46q9 19 32 45.5t45 44.5h81q-28 -22 -64.5 -66.5t-59.5 -86.5h-69
q-22 41 -59 85.5z" />
    <glyph glyph-name="acircumflex" unicode="&#xe2;" horiz-adv-x="529" 
d="M463 70.5q8 -13.5 29 -29.5l-59 -52q-51 26 -62 74q-24 -34 -66.5 -54t-97.5 -20q-75 0 -116 35.5t-41 102.5q0 69 48 103t132 43l68 8q43 5 56.5 15.5t12.5 36.5q-4 39 -31.5 62t-83.5 23q-41 0 -70 -13.5t-53 -43.5l-60 43q25 38 69.5 57.5t113.5 19.5q101 0 152 -42
t51 -122v-212q0 -21 8 -34.5zM329.5 87q38.5 33 38.5 84v67q-23 -13 -71 -17l-59 -6q-104 -12 -104 -85q0 -37 24 -56.5t70 -19.5q63 0 101.5 33zM179 610.5q37 44.5 59 86.5h69q23 -43 59.5 -87t64.5 -66h-81q-22 17 -44.5 43t-32.5 45q-10 -19 -33.5 -45t-44.5 -43h-82
q29 22 66 66.5z" />
    <glyph glyph-name="uni1EA5" unicode="&#x1ea5;" horiz-adv-x="529" 
d="M463 70.5q8 -13.5 29 -29.5l-59 -52q-51 26 -62 74q-24 -34 -66.5 -54t-97.5 -20q-75 0 -116 35.5t-41 102.5q0 69 48 103t132 43l68 8q43 5 56.5 15.5t12.5 36.5q-4 39 -31.5 62t-83.5 23q-41 0 -70 -13.5t-53 -43.5l-60 43q25 38 69.5 57.5t113.5 19.5q101 0 152 -42
t51 -122v-212q0 -21 8 -34.5zM329.5 87q38.5 33 38.5 84v67q-23 -13 -71 -17l-59 -6q-104 -12 -104 -85q0 -37 24 -56.5t70 -19.5q63 0 101.5 33zM444 753h89l-84 -116h-68zM179 610.5q37 44.5 59 86.5h69q23 -43 59.5 -87t64.5 -66h-81q-22 17 -44.5 43t-32.5 45
q-10 -19 -33.5 -45t-44.5 -43h-82q29 22 66 66.5z" />
    <glyph glyph-name="uni1EAD" unicode="&#x1ead;" horiz-adv-x="529" 
d="M463 70.5q8 -13.5 29 -29.5l-59 -52q-51 26 -62 74q-24 -34 -66.5 -54t-97.5 -20q-75 0 -116 35.5t-41 102.5q0 69 48 103t132 43l68 8q43 5 56.5 15.5t12.5 36.5q-4 39 -31.5 62t-83.5 23q-41 0 -70 -13.5t-53 -43.5l-60 43q25 38 69.5 57.5t113.5 19.5q101 0 152 -42
t51 -122v-212q0 -21 8 -34.5zM329.5 87q38.5 33 38.5 84v67q-23 -13 -71 -17l-59 -6q-104 -12 -104 -85q0 -37 24 -56.5t70 -19.5q63 0 101.5 33zM234 -156.5q-16 16.5 -16 39.5t16 39t39 16q22 0 38.5 -16.5t16.5 -38.5q0 -23 -16 -39.5t-39 -16.5t-39 16.5zM179 610.5
q37 44.5 59 86.5h69q23 -43 59.5 -87t64.5 -66h-81q-22 17 -44.5 43t-32.5 45q-10 -19 -33.5 -45t-44.5 -43h-82q29 22 66 66.5z" />
    <glyph glyph-name="uni1EA7" unicode="&#x1ea7;" horiz-adv-x="529" 
d="M463 70.5q8 -13.5 29 -29.5l-59 -52q-51 26 -62 74q-24 -34 -66.5 -54t-97.5 -20q-75 0 -116 35.5t-41 102.5q0 69 48 103t132 43l68 8q43 5 56.5 15.5t12.5 36.5q-4 39 -31.5 62t-83.5 23q-41 0 -70 -13.5t-53 -43.5l-60 43q25 38 69.5 57.5t113.5 19.5q101 0 152 -42
t51 -122v-212q0 -21 8 -34.5zM329.5 87q38.5 33 38.5 84v67q-23 -13 -71 -17l-59 -6q-104 -12 -104 -85q0 -37 24 -56.5t70 -19.5q63 0 101.5 33zM349 753h89l63 -116h-68zM179 610.5q37 44.5 59 86.5h69q23 -43 59.5 -87t64.5 -66h-81q-22 17 -44.5 43t-32.5 45
q-10 -19 -33.5 -45t-44.5 -43h-82q29 22 66 66.5z" />
    <glyph glyph-name="uni1EA9" unicode="&#x1ea9;" horiz-adv-x="529" 
d="M463 70.5q8 -13.5 29 -29.5l-59 -52q-51 26 -62 74q-24 -34 -66.5 -54t-97.5 -20q-75 0 -116 35.5t-41 102.5q0 69 48 103t132 43l68 8q43 5 56.5 15.5t12.5 36.5q-4 39 -31.5 62t-83.5 23q-41 0 -70 -13.5t-53 -43.5l-60 43q25 38 69.5 57.5t113.5 19.5q101 0 152 -42
t51 -122v-212q0 -21 8 -34.5zM329.5 87q38.5 33 38.5 84v67q-23 -13 -71 -17l-59 -6q-104 -12 -104 -85q0 -37 24 -56.5t70 -19.5q63 0 101.5 33zM498 692.5q-18 -16.5 -51 -24.5v-34h-59v64q39 4 55 11.5t16 23.5q0 18 -10 24t-32 6q-24 0 -49 -10l-14 45q33 14 71 14
q42 0 66.5 -17.5t24.5 -54.5q0 -31 -18 -47.5zM366.5 610q36.5 -44 64.5 -66h-81q-22 17 -44.5 43t-32.5 45q-10 -19 -33.5 -45t-44.5 -43h-82q29 22 66 66.5t59 86.5h69q23 -43 59.5 -87z" />
    <glyph glyph-name="uni1EAB" unicode="&#x1eab;" horiz-adv-x="529" 
d="M463 70.5q8 -13.5 29 -29.5l-59 -52q-51 26 -62 74q-24 -34 -66.5 -54t-97.5 -20q-75 0 -116 35.5t-41 102.5q0 69 48 103t132 43l68 8q43 5 56.5 15.5t12.5 36.5q-4 39 -31.5 62t-83.5 23q-41 0 -70 -13.5t-53 -43.5l-60 43q25 38 69.5 57.5t113.5 19.5q101 0 152 -42
t51 -122v-212q0 -21 8 -34.5zM329.5 87q38.5 33 38.5 84v67q-23 -13 -71 -17l-59 -6q-104 -12 -104 -85q0 -37 24 -56.5t70 -19.5q63 0 101.5 33zM149 801.5q24 29.5 68 29.5q18 0 33 -5.5t37 -16.5q12 -6 24 -11t22 -5q15 0 23 10.5t12 33.5h53q-3 -43 -26.5 -73t-61.5 -30
q-19 0 -34.5 5.5t-35.5 16.5l-12 6t-18.5 7.5t-15.5 2.5q-17 0 -26 -10.5t-14 -34.5h-54q2 45 26 74.5zM179 610.5q37 44.5 59 86.5h69q23 -43 59.5 -87t64.5 -66h-81q-22 17 -44.5 43t-32.5 45q-10 -19 -33.5 -45t-44.5 -43h-82q29 22 66 66.5z" />
    <glyph glyph-name="adieresis" unicode="&#xe4;" horiz-adv-x="529" 
d="M463 70.5q8 -13.5 29 -29.5l-59 -52q-51 26 -62 74q-24 -34 -66.5 -54t-97.5 -20q-75 0 -116 35.5t-41 102.5q0 69 48 103t132 43l68 8q43 5 56.5 15.5t12.5 36.5q-4 39 -31.5 62t-83.5 23q-41 0 -70 -13.5t-53 -43.5l-60 43q25 38 69.5 57.5t113.5 19.5q101 0 152 -42
t51 -122v-212q0 -21 8 -34.5zM329.5 87q38.5 33 38.5 84v67q-23 -13 -71 -17l-59 -6q-104 -12 -104 -85q0 -37 24 -56.5t70 -19.5q63 0 101.5 33zM154.5 555q-14.5 15 -14.5 35t14.5 34.5t34.5 14.5q19 0 34 -14.5t15 -34.5t-14.5 -35t-34.5 -15t-34.5 15zM322.5 555
q-14.5 15 -14.5 35t14.5 34.5t35.5 14.5q19 0 34 -14.5t15 -34.5t-14.5 -35t-34.5 -15q-21 0 -35.5 15z" />
    <glyph glyph-name="uni1EA1" unicode="&#x1ea1;" horiz-adv-x="529" 
d="M463 70.5q8 -13.5 29 -29.5l-59 -52q-51 26 -62 74q-24 -34 -66.5 -54t-97.5 -20q-75 0 -116 35.5t-41 102.5q0 69 48 103t132 43l68 8q43 5 56.5 15.5t12.5 36.5q-4 39 -31.5 62t-83.5 23q-41 0 -70 -13.5t-53 -43.5l-60 43q25 38 69.5 57.5t113.5 19.5q101 0 152 -42
t51 -122v-212q0 -21 8 -34.5zM329.5 87q38.5 33 38.5 84v67q-23 -13 -71 -17l-59 -6q-104 -12 -104 -85q0 -37 24 -56.5t70 -19.5q63 0 101.5 33zM234 -156.5q-16 16.5 -16 39.5t16 39t39 16q22 0 38.5 -16.5t16.5 -38.5q0 -23 -16 -39.5t-39 -16.5t-39 16.5z" />
    <glyph glyph-name="agrave" unicode="&#xe0;" horiz-adv-x="529" 
d="M463 70.5q8 -13.5 29 -29.5l-59 -52q-51 26 -62 74q-24 -34 -66.5 -54t-97.5 -20q-75 0 -116 35.5t-41 102.5q0 69 48 103t132 43l68 8q43 5 56.5 15.5t12.5 36.5q-4 39 -31.5 62t-83.5 23q-41 0 -70 -13.5t-53 -43.5l-60 43q25 38 69.5 57.5t113.5 19.5q101 0 152 -42
t51 -122v-212q0 -21 8 -34.5zM329.5 87q38.5 33 38.5 84v67q-23 -13 -71 -17l-59 -6q-104 -12 -104 -85q0 -37 24 -56.5t70 -19.5q63 0 101.5 33zM133 693h95l81 -149h-73z" />
    <glyph glyph-name="uni1EA3" unicode="&#x1ea3;" horiz-adv-x="529" 
d="M463 70.5q8 -13.5 29 -29.5l-59 -52q-51 26 -62 74q-24 -34 -66.5 -54t-97.5 -20q-75 0 -116 35.5t-41 102.5q0 69 48 103t132 43l68 8q43 5 56.5 15.5t12.5 36.5q-4 39 -31.5 62t-83.5 23q-41 0 -70 -13.5t-53 -43.5l-60 43q25 38 69.5 57.5t113.5 19.5q101 0 152 -42
t51 -122v-212q0 -21 8 -34.5zM329.5 87q38.5 33 38.5 84v67q-23 -13 -71 -17l-59 -6q-104 -12 -104 -85q0 -37 24 -56.5t70 -19.5q63 0 101.5 33zM302 581v-37h-67v70q44 4 62 14.5t18 29.5q0 20 -12 28t-35 8q-26 0 -54 -10l-15 49q36 17 78 17q50 0 79.5 -21.5t29.5 -64.5
q0 -65 -84 -83z" />
    <glyph glyph-name="uni0251" unicode="&#x251;" horiz-adv-x="578" 
d="M504.5 70.5q7.5 -13.5 28.5 -29.5l-58 -52q-31 16 -45 35.5t-16 44.5q-52 -80 -158 -80q-62 0 -108.5 28.5t-72 80.5t-25.5 121v32q0 67 25 119t71.5 81.5t109.5 29.5q102 0 153 -76v65h88v-365q0 -21 7.5 -34.5zM359.5 82.5q32.5 24.5 48.5 75.5v154q-16 51 -48.5 75.5
t-83.5 24.5q-63 0 -100.5 -45t-37.5 -116v-32q0 -71 37 -116t101 -45q51 0 83.5 24.5z" />
    <glyph glyph-name="amacron" unicode="&#x101;" horiz-adv-x="529" 
d="M463 70.5q8 -13.5 29 -29.5l-59 -52q-51 26 -62 74q-24 -34 -66.5 -54t-97.5 -20q-75 0 -116 35.5t-41 102.5q0 69 48 103t132 43l68 8q43 5 56.5 15.5t12.5 36.5q-4 39 -31.5 62t-83.5 23q-41 0 -70 -13.5t-53 -43.5l-60 43q25 38 69.5 57.5t113.5 19.5q101 0 152 -42
t51 -122v-212q0 -21 8 -34.5zM329.5 87q38.5 33 38.5 84v67q-23 -13 -71 -17l-59 -6q-104 -12 -104 -85q0 -37 24 -56.5t70 -19.5q63 0 101.5 33zM119 626h307v-64h-307v64z" />
    <glyph glyph-name="aogonek" unicode="&#x105;" horiz-adv-x="529" 
d="M526 -179q-34 -22 -77 -22q-64 0 -91.5 29t-27.5 64q0 70 64 126q-17 18 -23 45q-24 -34 -66.5 -54t-97.5 -20q-75 0 -116 35.5t-41 102.5q0 69 48 103t132 43l68 8q43 5 56.5 15.5t12.5 36.5q-4 39 -31.5 62t-83.5 23q-41 0 -70 -13.5t-53 -43.5l-60 43q25 38 69.5 57.5
t113.5 19.5q101 0 152 -42t51 -122v-212q0 -21 8 -34.5t29 -29.5l-55 -49q-32 -46 -32 -87q0 -24 14.5 -35.5t37.5 -11.5q21 0 54 14zM329.5 87q38.5 33 38.5 84v67q-23 -13 -71 -17l-59 -6q-104 -12 -104 -85q0 -37 24 -56.5t70 -19.5q63 0 101.5 33z" />
    <glyph glyph-name="aring" unicode="&#xe5;" horiz-adv-x="529" 
d="M463 70.5q8 -13.5 29 -29.5l-59 -52q-51 26 -62 74q-24 -34 -66.5 -54t-97.5 -20q-75 0 -116 35.5t-41 102.5q0 69 48 103t132 43l68 8q43 5 56.5 15.5t12.5 36.5q-4 39 -31.5 62t-83.5 23q-41 0 -70 -13.5t-53 -43.5l-60 43q25 38 69.5 57.5t113.5 19.5q101 0 152 -42
t51 -122v-212q0 -21 8 -34.5zM329.5 87q38.5 33 38.5 84v67q-23 -13 -71 -17l-59 -6q-104 -12 -104 -85q0 -37 24 -56.5t70 -19.5q63 0 101.5 33zM198.5 557q-27.5 26 -27.5 70q0 43 27.5 69t74.5 26t74.5 -26t27.5 -69q0 -44 -27.5 -70t-74.5 -26t-74.5 26zM309 590.5
q13 13.5 13 36.5t-13 36t-36 13t-36 -13t-13 -36t13 -36.5t36 -13.5t36 13.5z" />
    <glyph glyph-name="aringacute" unicode="&#x1fb;" horiz-adv-x="529" 
d="M301 748h-72l80 119h95zM198.5 557q-27.5 26 -27.5 70q0 43 27.5 69t74.5 26q46 0 74 -26t28 -69q0 -44 -28 -70t-74 -26q-47 0 -74.5 26zM236.5 663q-13.5 -13 -13.5 -36t13.5 -36.5t36.5 -13.5t36 13.5t13 36.5t-13 36t-36 13t-36.5 -13zM463 70.5q8 -13.5 29 -29.5
l-59 -52q-51 26 -62 74q-24 -34 -66.5 -54t-97.5 -20q-75 0 -116 35.5t-41 102.5q0 69 48 103t132 43l68 8q43 5 56.5 15.5t12.5 36.5q-4 39 -31.5 62t-83.5 23q-41 0 -70 -13.5t-53 -43.5l-60 43q25 38 69.5 57.5t113.5 19.5q101 0 152 -42t51 -122v-212q0 -21 8 -34.5z
M329.5 87q38.5 33 38.5 84v67q-23 -13 -71 -17l-59 -6q-104 -12 -104 -85q0 -37 24 -56.5t70 -19.5q63 0 101.5 33z" />
    <glyph glyph-name="atilde" unicode="&#xe3;" horiz-adv-x="529" 
d="M463 70.5q8 -13.5 29 -29.5l-59 -52q-51 26 -62 74q-24 -34 -66.5 -54t-97.5 -20q-75 0 -116 35.5t-41 102.5q0 69 48 103t132 43l68 8q43 5 56.5 15.5t12.5 36.5q-4 39 -31.5 62t-83.5 23q-41 0 -70 -13.5t-53 -43.5l-60 43q25 38 69.5 57.5t113.5 19.5q101 0 152 -42
t51 -122v-212q0 -21 8 -34.5zM329.5 87q38.5 33 38.5 84v67q-23 -13 -71 -17l-59 -6q-104 -12 -104 -85q0 -37 24 -56.5t70 -19.5q63 0 101.5 33zM140 632.5q25 33.5 73 33.5q20 0 37 -6.5t39 -18.5q18 -9 28.5 -13.5t21.5 -4.5q16 0 24 11.5t12 36.5h58q-3 -49 -27.5 -82.5
t-66.5 -33.5q-21 0 -38 6.5t-38 18.5q-4 2 -14.5 7.5t-19 8t-16.5 2.5q-18 0 -27.5 -11.5t-14.5 -38.5h-58q2 51 27 84.5z" />
    <glyph glyph-name="ae" unicode="&#xe6;" horiz-adv-x="808" 
d="M648.5 70q29.5 12 56.5 39l54 -50q-58 -70 -181 -70q-69 0 -110 20t-65 63q-24 -39 -71.5 -61t-112.5 -22q-85 0 -127 35.5t-42 102.5q0 69 48 103t132 43l68 7q43 5 56.5 15.5t12.5 38.5q-5 39 -32.5 61.5t-82.5 22.5q-41 0 -70 -13.5t-53 -43.5l-60 43q54 77 186 77
q60 0 98.5 -14.5t64.5 -46.5q49 60 153 60q94 0 145.5 -44.5t51.5 -131.5q0 -58 -23 -78t-75 -20h-215v-41q0 -107 125 -107q39 0 68.5 12zM455 263h171q31 0 42.5 9.5t11.5 38.5q0 47 -29.5 73.5t-81.5 26.5q-53 0 -83.5 -28t-30.5 -75v-45zM329.5 87q38.5 33 38.5 86v65
q-11 -7 -27.5 -11t-43.5 -6l-59 -7q-47 -5 -74.5 -26t-27.5 -59q0 -37 23.5 -56t69.5 -19q62 0 100.5 33z" />
    <glyph glyph-name="aeacute" unicode="&#x1fd;" horiz-adv-x="808" 
d="M648.5 70q29.5 12 56.5 39l54 -50q-58 -70 -181 -70q-69 0 -110 20t-65 63q-24 -39 -71.5 -61t-112.5 -22q-85 0 -127 35.5t-42 102.5q0 69 48 103t132 43l68 7q43 5 56.5 15.5t12.5 38.5q-5 39 -32.5 61.5t-82.5 22.5q-41 0 -70 -13.5t-53 -43.5l-60 43q54 77 186 77
q60 0 98.5 -14.5t64.5 -46.5q49 60 153 60q94 0 145.5 -44.5t51.5 -131.5q0 -58 -23 -78t-75 -20h-215v-41q0 -107 125 -107q39 0 68.5 12zM455 263h171q31 0 42.5 9.5t11.5 38.5q0 47 -29.5 73.5t-81.5 26.5q-53 0 -83.5 -28t-30.5 -75v-45zM329.5 87q38.5 33 38.5 86v65
q-11 -7 -27.5 -11t-43.5 -6l-59 -7q-47 -5 -74.5 -26t-27.5 -59q0 -37 23.5 -56t69.5 -19q62 0 100.5 33zM456 693h95l-103 -149h-72z" />
    <glyph glyph-name="b" unicode="b" horiz-adv-x="578" 
d="M170 59v-59h-88v616q0 22 -7.5 35t-29.5 30l58 52q38 -20 52.5 -45.5t14.5 -71.5v-207q51 72 152 72q63 0 109.5 -29.5t71.5 -81.5t25 -119v-32q0 -67 -24.5 -119t-71 -81.5t-109.5 -29.5q-104 0 -153 70zM402.5 103q37.5 45 37.5 116v32q0 71 -37.5 116t-100.5 45
q-102 0 -132 -99v-156q30 -99 132 -99q63 0 100.5 45z" />
    <glyph glyph-name="c" unicode="c" horiz-adv-x="475" 
d="M108.5 35q-53.5 46 -53.5 132v136q0 85 54.5 131.5t154.5 46.5q120 0 179 -77l-60 -50q-28 32 -54 45t-65 13q-58 0 -89.5 -28.5t-31.5 -80.5v-136q0 -52 31 -80.5t89 -28.5q41 0 69.5 14t52.5 44l60 -50q-29 -39 -73 -58t-109 -19q-101 0 -154.5 46z" />
    <glyph glyph-name="cacute" unicode="&#x107;" horiz-adv-x="475" 
d="M108.5 35q-53.5 46 -53.5 132v136q0 85 54.5 131.5t154.5 46.5q120 0 179 -77l-60 -50q-28 32 -54 45t-65 13q-58 0 -89.5 -28.5t-31.5 -80.5v-136q0 -52 31 -80.5t89 -28.5q41 0 69.5 14t52.5 44l60 -50q-29 -39 -73 -58t-109 -19q-101 0 -154.5 46zM297 693h95
l-103 -149h-72z" />
    <glyph glyph-name="ccaron" unicode="&#x10d;" horiz-adv-x="475" 
d="M108.5 35q-53.5 46 -53.5 132v136q0 85 54.5 131.5t154.5 46.5q120 0 179 -77l-60 -50q-28 32 -54 45t-65 13q-58 0 -89.5 -28.5t-31.5 -80.5v-136q0 -52 31 -80.5t89 -28.5q41 0 69.5 14t52.5 44l60 -50q-29 -39 -73 -58t-109 -19q-101 0 -154.5 46zM162 629.5
q-37 44.5 -66 67.5h82q22 -18 45 -44t33 -46q9 19 32 45.5t45 44.5h81q-28 -22 -64.5 -66.5t-59.5 -86.5h-69q-22 41 -59 85.5z" />
    <glyph glyph-name="ccedilla" unicode="&#xe7;" horiz-adv-x="475" 
d="M381.5 12.5q-37.5 -18.5 -90.5 -22.5l-10 -33q42 -3 63 -24t21 -57q0 -85 -120 -85q-56 0 -95 21l16 50q42 -17 70 -17q30 0 44.5 7.5t14.5 23.5q0 15 -12 24.5t-45 9.5q-8 0 -32 -2l20 83q-83 8 -127 53t-44 123v136q0 85 54.5 131.5t154.5 46.5q120 0 179 -77l-60 -50
q-28 32 -54 45t-65 13q-58 0 -89.5 -28.5t-31.5 -80.5v-136q0 -52 31 -80.5t89 -28.5q41 0 69.5 14t52.5 44l60 -50q-26 -35 -63.5 -53.5z" />
    <glyph glyph-name="ccircumflex" unicode="&#x109;" horiz-adv-x="475" 
d="M108.5 35q-53.5 46 -53.5 132v136q0 85 54.5 131.5t154.5 46.5q120 0 179 -77l-60 -50q-28 32 -54 45t-65 13q-58 0 -89.5 -28.5t-31.5 -80.5v-136q0 -52 31 -80.5t89 -28.5q41 0 69.5 14t52.5 44l60 -50q-29 -39 -73 -58t-109 -19q-101 0 -154.5 46zM162 610.5
q37 44.5 59 86.5h69q23 -43 59.5 -87t64.5 -66h-81q-22 17 -44.5 43t-32.5 45q-10 -19 -33.5 -45t-44.5 -43h-82q29 22 66 66.5z" />
    <glyph glyph-name="cdotaccent" unicode="&#x10b;" horiz-adv-x="475" 
d="M108.5 35q-53.5 46 -53.5 132v136q0 85 54.5 131.5t154.5 46.5q120 0 179 -77l-60 -50q-28 32 -54 45t-65 13q-58 0 -89.5 -28.5t-31.5 -80.5v-136q0 -52 31 -80.5t89 -28.5q41 0 69.5 14t52.5 44l60 -50q-29 -39 -73 -58t-109 -19q-101 0 -154.5 46zM217 556.5
q-16 16.5 -16 39.5t16 39.5t39 16.5q22 0 38.5 -16.5t16.5 -39.5t-16.5 -39.5t-38.5 -16.5q-23 0 -39 16.5z" />
    <glyph glyph-name="d" unicode="d" horiz-adv-x="578" 
d="M504 70.5q8 -13.5 29 -29.5l-59 -52q-47 25 -61 80q-50 -80 -157 -80q-62 0 -108.5 28.5t-72 80.5t-25.5 121v32q0 67 24.5 119t71 81.5t110.5 29.5q102 0 152 -70v205q0 21 -7.5 34t-29.5 31l60 52q37 -20 51 -45.5t14 -71.5v-511q0 -21 8 -34.5zM408 313
q-16 50 -48.5 74.5t-83.5 24.5q-63 0 -100.5 -45t-37.5 -116v-32q0 -71 37 -116t101 -45q51 0 83.5 24.5t48.5 74.5v156z" />
    <glyph glyph-name="eth" unicode="&#xf0;" horiz-adv-x="519" 
d="M455.5 361.5q8.5 -28.5 8.5 -62.5v-128q0 -87 -53 -134.5t-151 -47.5t-151.5 47.5t-53.5 134.5v128q0 86 53 134t149 48q29 0 46 -4l-47 73h-138v48h108l-66 102h85l66 -102h123v-48h-91l84 -130q20 -30 28.5 -58.5zM376 299q0 54 -30.5 83.5t-85.5 29.5
q-56 0 -86.5 -29.5t-30.5 -83.5v-128q0 -54 30.5 -83.5t86.5 -29.5q55 0 85.5 29.5t30.5 83.5v128z" />
    <glyph glyph-name="dcaron" unicode="&#x10f;" horiz-adv-x="658" 
d="M504 70.5q8 -13.5 29 -29.5l-59 -52q-47 25 -61 80q-50 -80 -157 -80q-62 0 -108.5 28.5t-72 80.5t-25.5 121v32q0 67 24.5 119t71 81.5t110.5 29.5q102 0 152 -70v205q0 21 -7.5 34t-29.5 31l60 52q37 -20 51 -45.5t14 -71.5v-511q0 -21 8 -34.5zM408 313
q-16 50 -48.5 74.5t-83.5 24.5q-63 0 -100.5 -45t-37.5 -116v-32q0 -71 37 -116t101 -45q51 0 83.5 24.5t48.5 74.5v156zM639.5 706q15.5 -19 15.5 -53q0 -88 -84 -155l-28 28q52 40 58 87q-11 -6 -26 -6q-20 0 -31 13.5t-11 37.5q0 25 18 46t44 21q29 0 44.5 -19z" />
    <glyph glyph-name="dcroat" unicode="&#x111;" horiz-adv-x="578" 
d="M496 552v-447q0 -21 8 -34.5t29 -29.5l-59 -52q-47 25 -61 80q-50 -80 -157 -80q-62 0 -108.5 28.5t-72 80.5t-25.5 121v32q0 67 24.5 119t71 81.5t110.5 29.5q102 0 152 -70v141h-172v49h172v15q0 21 -7.5 34t-29.5 31l60 52q37 -20 51 -45.5t14 -71.5v-15h72v-49h-72z
M408 313q-16 50 -48.5 74.5t-83.5 24.5q-63 0 -100.5 -45t-37.5 -116v-32q0 -71 37 -116t101 -45q51 0 83.5 24.5t48.5 74.5v156z" />
    <glyph glyph-name="uni1E0D" unicode="&#x1e0d;" horiz-adv-x="578" 
d="M504 70.5q8 -13.5 29 -29.5l-59 -52q-47 25 -61 80q-50 -80 -157 -80q-62 0 -108.5 28.5t-72 80.5t-25.5 121v32q0 67 24.5 119t71 81.5t110.5 29.5q102 0 152 -70v205q0 21 -7.5 34t-29.5 31l60 52q37 -20 51 -45.5t14 -71.5v-511q0 -21 8 -34.5zM408 313
q-16 50 -48.5 74.5t-83.5 24.5q-63 0 -100.5 -45t-37.5 -116v-32q0 -71 37 -116t101 -45q51 0 83.5 24.5t48.5 74.5v156zM249 -156.5q-16 16.5 -16 39.5t16 39t39 16q22 0 38.5 -16.5t16.5 -38.5q0 -23 -16 -39.5t-39 -16.5t-39 16.5z" />
    <glyph glyph-name="uni1E0F" unicode="&#x1e0f;" horiz-adv-x="578" 
d="M504 70.5q8 -13.5 29 -29.5l-59 -52q-47 25 -61 80q-50 -80 -157 -80q-62 0 -108.5 28.5t-72 80.5t-25.5 121v32q0 67 24.5 119t71 81.5t110.5 29.5q102 0 152 -70v205q0 21 -7.5 34t-29.5 31l60 52q37 -20 51 -45.5t14 -71.5v-511q0 -21 8 -34.5zM408 313
q-16 50 -48.5 74.5t-83.5 24.5q-63 0 -100.5 -45t-37.5 -116v-32q0 -71 37 -116t101 -45q51 0 83.5 24.5t48.5 74.5v156zM134 -78h307v-65h-307v65z" />
    <glyph glyph-name="e" unicode="e" horiz-adv-x="496" 
d="M335.5 69q29.5 12 57.5 39l54 -49q-30 -36 -74.5 -53t-109.5 -17q-103 0 -155.5 44.5t-52.5 132.5v149q0 77 53.5 121.5t146.5 44.5q96 0 148.5 -47t52.5 -135q0 -59 -20.5 -81t-78.5 -22h-214v-31q0 -54 30 -81t92 -27q41 0 70.5 12zM172.5 385q-29.5 -28 -29.5 -76v-50
h171q31 0 42.5 10t11.5 38q0 50 -30 78t-83 28t-82.5 -28z" />
    <glyph glyph-name="eacute" unicode="&#xe9;" horiz-adv-x="496" 
d="M335.5 69q29.5 12 57.5 39l54 -49q-30 -36 -74.5 -53t-109.5 -17q-103 0 -155.5 44.5t-52.5 132.5v149q0 77 53.5 121.5t146.5 44.5q96 0 148.5 -47t52.5 -135q0 -59 -20.5 -81t-78.5 -22h-214v-31q0 -54 30 -81t92 -27q41 0 70.5 12zM172.5 385q-29.5 -28 -29.5 -76v-50
h171q31 0 42.5 10t11.5 38q0 50 -30 78t-83 28t-82.5 -28zM294 693h95l-103 -149h-72z" />
    <glyph glyph-name="ebreve" unicode="&#x115;" horiz-adv-x="496" 
d="M335.5 69q29.5 12 57.5 39l54 -49q-30 -36 -74.5 -53t-109.5 -17q-103 0 -155.5 44.5t-52.5 132.5v149q0 77 53.5 121.5t146.5 44.5q96 0 148.5 -47t52.5 -135q0 -59 -20.5 -81t-78.5 -22h-214v-31q0 -54 30 -81t92 -27q41 0 70.5 12zM172.5 385q-29.5 -28 -29.5 -76v-50
h171q31 0 42.5 10t11.5 38q0 50 -30 78t-83 28t-82.5 -28zM141.5 578q-41.5 41 -41.5 109h64q3 -40 26 -63t63 -23t63.5 23t25.5 63h64q0 -68 -41.5 -109t-111.5 -41t-111.5 41z" />
    <glyph glyph-name="ecaron" unicode="&#x11b;" horiz-adv-x="496" 
d="M335.5 69q29.5 12 57.5 39l54 -49q-30 -36 -74.5 -53t-109.5 -17q-103 0 -155.5 44.5t-52.5 132.5v149q0 77 53.5 121.5t146.5 44.5q96 0 148.5 -47t52.5 -135q0 -59 -20.5 -81t-78.5 -22h-214v-31q0 -54 30 -81t92 -27q41 0 70.5 12zM172.5 385q-29.5 -28 -29.5 -76v-50
h171q31 0 42.5 10t11.5 38q0 50 -30 78t-83 28t-82.5 -28zM159 629.5q-37 44.5 -66 67.5h82q22 -18 45 -44t33 -46q9 19 32 45.5t45 44.5h81q-28 -22 -64.5 -66.5t-59.5 -86.5h-69q-22 41 -59 85.5z" />
    <glyph glyph-name="ecircumflex" unicode="&#xea;" horiz-adv-x="496" 
d="M335.5 69q29.5 12 57.5 39l54 -49q-30 -36 -74.5 -53t-109.5 -17q-103 0 -155.5 44.5t-52.5 132.5v149q0 77 53.5 121.5t146.5 44.5q96 0 148.5 -47t52.5 -135q0 -59 -20.5 -81t-78.5 -22h-214v-31q0 -54 30 -81t92 -27q41 0 70.5 12zM172.5 385q-29.5 -28 -29.5 -76v-50
h171q31 0 42.5 10t11.5 38q0 50 -30 78t-83 28t-82.5 -28zM159 610.5q37 44.5 59 86.5h69q23 -43 59.5 -87t64.5 -66h-81q-22 17 -44.5 43t-32.5 45q-10 -19 -33.5 -45t-44.5 -43h-82q29 22 66 66.5z" />
    <glyph glyph-name="uni1EBF" unicode="&#x1ebf;" horiz-adv-x="496" 
d="M335.5 69q29.5 12 57.5 39l54 -49q-30 -36 -74.5 -53t-109.5 -17q-103 0 -155.5 44.5t-52.5 132.5v149q0 77 53.5 121.5t146.5 44.5q96 0 148.5 -47t52.5 -135q0 -59 -20.5 -81t-78.5 -22h-214v-31q0 -54 30 -81t92 -27q41 0 70.5 12zM172.5 385q-29.5 -28 -29.5 -76v-50
h171q31 0 42.5 10t11.5 38q0 50 -30 78t-83 28t-82.5 -28zM424 753h89l-84 -116h-68zM159 610.5q37 44.5 59 86.5h69q23 -43 59.5 -87t64.5 -66h-81q-22 17 -44.5 43t-32.5 45q-10 -19 -33.5 -45t-44.5 -43h-82q29 22 66 66.5z" />
    <glyph glyph-name="uni1EC7" unicode="&#x1ec7;" horiz-adv-x="496" 
d="M335.5 69q29.5 12 57.5 39l54 -49q-30 -36 -74.5 -53t-109.5 -17q-103 0 -155.5 44.5t-52.5 132.5v149q0 77 53.5 121.5t146.5 44.5q96 0 148.5 -47t52.5 -135q0 -59 -20.5 -81t-78.5 -22h-214v-31q0 -54 30 -81t92 -27q41 0 70.5 12zM172.5 385q-29.5 -28 -29.5 -76v-50
h171q31 0 42.5 10t11.5 38q0 50 -30 78t-83 28t-82.5 -28zM214 -156.5q-16 16.5 -16 39.5t16 39t39 16q22 0 38.5 -16.5t16.5 -38.5q0 -23 -16 -39.5t-39 -16.5t-39 16.5zM159 610.5q37 44.5 59 86.5h69q23 -43 59.5 -87t64.5 -66h-81q-22 17 -44.5 43t-32.5 45
q-10 -19 -33.5 -45t-44.5 -43h-82q29 22 66 66.5z" />
    <glyph glyph-name="uni1EC1" unicode="&#x1ec1;" horiz-adv-x="496" 
d="M335.5 69q29.5 12 57.5 39l54 -49q-30 -36 -74.5 -53t-109.5 -17q-103 0 -155.5 44.5t-52.5 132.5v149q0 77 53.5 121.5t146.5 44.5q96 0 148.5 -47t52.5 -135q0 -59 -20.5 -81t-78.5 -22h-214v-31q0 -54 30 -81t92 -27q41 0 70.5 12zM172.5 385q-29.5 -28 -29.5 -76v-50
h171q31 0 42.5 10t11.5 38q0 50 -30 78t-83 28t-82.5 -28zM329 753h89l63 -116h-68zM159 610.5q37 44.5 59 86.5h69q23 -43 59.5 -87t64.5 -66h-81q-22 17 -44.5 43t-32.5 45q-10 -19 -33.5 -45t-44.5 -43h-82q29 22 66 66.5z" />
    <glyph glyph-name="uni1EC3" unicode="&#x1ec3;" horiz-adv-x="496" 
d="M335.5 69q29.5 12 57.5 39l54 -49q-30 -36 -74.5 -53t-109.5 -17q-103 0 -155.5 44.5t-52.5 132.5v149q0 77 53.5 121.5t146.5 44.5q96 0 148.5 -47t52.5 -135q0 -59 -20.5 -81t-78.5 -22h-214v-31q0 -54 30 -81t92 -27q41 0 70.5 12zM172.5 385q-29.5 -28 -29.5 -76v-50
h171q31 0 42.5 10t11.5 38q0 50 -30 78t-83 28t-82.5 -28zM478 692.5q-18 -16.5 -51 -24.5v-34h-59v64q39 4 55 11.5t16 23.5q0 18 -10 24t-32 6q-24 0 -49 -10l-14 45q33 14 71 14q42 0 66.5 -17.5t24.5 -54.5q0 -31 -18 -47.5zM346.5 610q36.5 -44 64.5 -66h-81
q-22 17 -44.5 43t-32.5 45q-10 -19 -33.5 -45t-44.5 -43h-82q29 22 66 66.5t59 86.5h69q23 -43 59.5 -87z" />
    <glyph glyph-name="uni1EC5" unicode="&#x1ec5;" horiz-adv-x="496" 
d="M335.5 69q29.5 12 57.5 39l54 -49q-30 -36 -74.5 -53t-109.5 -17q-103 0 -155.5 44.5t-52.5 132.5v149q0 77 53.5 121.5t146.5 44.5q96 0 148.5 -47t52.5 -135q0 -59 -20.5 -81t-78.5 -22h-214v-31q0 -54 30 -81t92 -27q41 0 70.5 12zM172.5 385q-29.5 -28 -29.5 -76v-50
h171q31 0 42.5 10t11.5 38q0 50 -30 78t-83 28t-82.5 -28zM129 801.5q24 29.5 68 29.5q18 0 33 -5.5t37 -16.5q12 -6 24 -11t22 -5q15 0 23 10.5t12 33.5h53q-3 -43 -26.5 -73t-61.5 -30q-19 0 -34.5 5.5t-35.5 16.5l-12 6t-18.5 7.5t-15.5 2.5q-17 0 -26 -10.5t-14 -34.5
h-54q2 45 26 74.5zM159 610.5q37 44.5 59 86.5h69q23 -43 59.5 -87t64.5 -66h-81q-22 17 -44.5 43t-32.5 45q-10 -19 -33.5 -45t-44.5 -43h-82q29 22 66 66.5z" />
    <glyph glyph-name="edieresis" unicode="&#xeb;" horiz-adv-x="496" 
d="M335.5 69q29.5 12 57.5 39l54 -49q-30 -36 -74.5 -53t-109.5 -17q-103 0 -155.5 44.5t-52.5 132.5v149q0 77 53.5 121.5t146.5 44.5q96 0 148.5 -47t52.5 -135q0 -59 -20.5 -81t-78.5 -22h-214v-31q0 -54 30 -81t92 -27q41 0 70.5 12zM172.5 385q-29.5 -28 -29.5 -76v-50
h171q31 0 42.5 10t11.5 38q0 50 -30 78t-83 28t-82.5 -28zM134.5 555q-14.5 15 -14.5 35t14.5 34.5t34.5 14.5q19 0 34 -14.5t15 -34.5t-14.5 -35t-34.5 -15t-34.5 15zM302.5 555q-14.5 15 -14.5 35t14.5 34.5t35.5 14.5q19 0 34 -14.5t15 -34.5t-14.5 -35t-34.5 -15
q-21 0 -35.5 15z" />
    <glyph glyph-name="edotaccent" unicode="&#x117;" horiz-adv-x="496" 
d="M335.5 69q29.5 12 57.5 39l54 -49q-30 -36 -74.5 -53t-109.5 -17q-103 0 -155.5 44.5t-52.5 132.5v149q0 77 53.5 121.5t146.5 44.5q96 0 148.5 -47t52.5 -135q0 -59 -20.5 -81t-78.5 -22h-214v-31q0 -54 30 -81t92 -27q41 0 70.5 12zM172.5 385q-29.5 -28 -29.5 -76v-50
h171q31 0 42.5 10t11.5 38q0 50 -30 78t-83 28t-82.5 -28zM214 556.5q-16 16.5 -16 39.5t16 39.5t39 16.5q22 0 38.5 -16.5t16.5 -39.5t-16.5 -39.5t-38.5 -16.5q-23 0 -39 16.5z" />
    <glyph glyph-name="uni1EB9" unicode="&#x1eb9;" horiz-adv-x="496" 
d="M335.5 69q29.5 12 57.5 39l54 -49q-30 -36 -74.5 -53t-109.5 -17q-103 0 -155.5 44.5t-52.5 132.5v149q0 77 53.5 121.5t146.5 44.5q96 0 148.5 -47t52.5 -135q0 -59 -20.5 -81t-78.5 -22h-214v-31q0 -54 30 -81t92 -27q41 0 70.5 12zM172.5 385q-29.5 -28 -29.5 -76v-50
h171q31 0 42.5 10t11.5 38q0 50 -30 78t-83 28t-82.5 -28zM214 -156.5q-16 16.5 -16 39.5t16 39t39 16q22 0 38.5 -16.5t16.5 -38.5q0 -23 -16 -39.5t-39 -16.5t-39 16.5z" />
    <glyph glyph-name="egrave" unicode="&#xe8;" horiz-adv-x="496" 
d="M335.5 69q29.5 12 57.5 39l54 -49q-30 -36 -74.5 -53t-109.5 -17q-103 0 -155.5 44.5t-52.5 132.5v149q0 77 53.5 121.5t146.5 44.5q96 0 148.5 -47t52.5 -135q0 -59 -20.5 -81t-78.5 -22h-214v-31q0 -54 30 -81t92 -27q41 0 70.5 12zM172.5 385q-29.5 -28 -29.5 -76v-50
h171q31 0 42.5 10t11.5 38q0 50 -30 78t-83 28t-82.5 -28zM113 693h95l81 -149h-73z" />
    <glyph glyph-name="uni1EBB" unicode="&#x1ebb;" horiz-adv-x="496" 
d="M335.5 69q29.5 12 57.5 39l54 -49q-30 -36 -74.5 -53t-109.5 -17q-103 0 -155.5 44.5t-52.5 132.5v149q0 77 53.5 121.5t146.5 44.5q96 0 148.5 -47t52.5 -135q0 -59 -20.5 -81t-78.5 -22h-214v-31q0 -54 30 -81t92 -27q41 0 70.5 12zM172.5 385q-29.5 -28 -29.5 -76v-50
h171q31 0 42.5 10t11.5 38q0 50 -30 78t-83 28t-82.5 -28zM282 581v-37h-67v70q44 4 62 14.5t18 29.5q0 20 -12 28t-35 8q-26 0 -54 -10l-15 49q36 17 78 17q50 0 79.5 -21.5t29.5 -64.5q0 -65 -84 -83z" />
    <glyph glyph-name="emacron" unicode="&#x113;" horiz-adv-x="496" 
d="M335.5 69q29.5 12 57.5 39l54 -49q-30 -36 -74.5 -53t-109.5 -17q-103 0 -155.5 44.5t-52.5 132.5v149q0 77 53.5 121.5t146.5 44.5q96 0 148.5 -47t52.5 -135q0 -59 -20.5 -81t-78.5 -22h-214v-31q0 -54 30 -81t92 -27q41 0 70.5 12zM172.5 385q-29.5 -28 -29.5 -76v-50
h171q31 0 42.5 10t11.5 38q0 50 -30 78t-83 28t-82.5 -28zM99 626h307v-64h-307v64z" />
    <glyph glyph-name="eogonek" unicode="&#x119;" horiz-adv-x="496" 
d="M335.5 69q29.5 12 57.5 39l54 -49q-29 -34 -71 -51.5t-101 -18.5q-35 -51 -35 -94q0 -24 14 -35.5t37 -11.5q21 0 54 14l16 -51q-34 -22 -78 -22q-64 0 -91.5 29t-27.5 64q0 58 47 110q-77 11 -116.5 54.5t-39.5 119.5v149q0 77 53.5 121.5t146.5 44.5q96 0 148.5 -47
t52.5 -135q0 -59 -20.5 -81t-78.5 -22h-214v-31q0 -54 30 -81t92 -27q41 0 70.5 12zM172.5 385q-29.5 -28 -29.5 -76v-50h171q31 0 42.5 10t11.5 38q0 50 -30 78t-83 28t-82.5 -28z" />
    <glyph glyph-name="uni1EBD" unicode="&#x1ebd;" horiz-adv-x="496" 
d="M335.5 69q29.5 12 57.5 39l54 -49q-30 -36 -74.5 -53t-109.5 -17q-103 0 -155.5 44.5t-52.5 132.5v149q0 77 53.5 121.5t146.5 44.5q96 0 148.5 -47t52.5 -135q0 -59 -20.5 -81t-78.5 -22h-214v-31q0 -54 30 -81t92 -27q41 0 70.5 12zM172.5 385q-29.5 -28 -29.5 -76v-50
h171q31 0 42.5 10t11.5 38q0 50 -30 78t-83 28t-82.5 -28zM120 632.5q25 33.5 73 33.5q20 0 37 -6.5t39 -18.5q18 -9 28.5 -13.5t21.5 -4.5q16 0 24 11.5t12 36.5h58q-3 -49 -27.5 -82.5t-66.5 -33.5q-21 0 -38 6.5t-38 18.5q-4 2 -14.5 7.5t-19 8t-16.5 2.5
q-18 0 -27.5 -11.5t-14.5 -38.5h-58q2 51 27 84.5z" />
    <glyph glyph-name="uni0259" unicode="&#x259;" horiz-adv-x="496" 
d="M390.5 437.5q50.5 -42.5 50.5 -134.5v-148q0 -77 -53.5 -121.5t-145.5 -44.5q-95 0 -148.5 45.5t-53.5 134.5q0 40 8 61.5t29 31.5t61 10h215v31q0 55 -30.5 81.5t-92.5 26.5q-42 0 -71 -12.5t-56 -38.5l-54 50q60 70 181 70q110 0 160.5 -42.5zM323.5 85.5
q29.5 28.5 29.5 75.5v49h-171q-31 0 -42.5 -9.5t-11.5 -35.5q0 -52 30 -80t84 -28q52 0 81.5 28.5z" />
    <glyph glyph-name="f" unicode="f" horiz-adv-x="320" 
d="M196 624.5q-26 -29.5 -26 -84.5v-70h135v-69h-135v-401h-88v540q0 88 49 135.5t140 47.5h34v-69h-34q-49 0 -75 -29.5z" />
    <glyph glyph-name="g" unicode="g" horiz-adv-x="578" 
d="M533 429q-21 -16 -29 -29.5t-8 -34.5v-393q0 -88 -47 -130t-147 -42h-124v69h124q53 0 79.5 25.5t26.5 77.5v100q-49 -72 -152 -72q-95 0 -150.5 62t-55.5 168v21q0 67 24.5 119t71 81.5t110.5 29.5q51 0 91 -20t67 -58q4 26 17 44t43 34zM360 94q32 25 48 76v142
q-16 51 -48.5 75.5t-83.5 24.5q-63 0 -100.5 -45t-37.5 -116v-21q0 -71 37 -116t101 -45q52 0 84 25z" />
    <glyph glyph-name="gbreve" unicode="&#x11f;" horiz-adv-x="578" 
d="M533 429q-21 -16 -29 -29.5t-8 -34.5v-393q0 -88 -47 -130t-147 -42h-124v69h124q53 0 79.5 25.5t26.5 77.5v100q-49 -72 -152 -72q-95 0 -150.5 62t-55.5 168v21q0 67 24.5 119t71 81.5t110.5 29.5q51 0 91 -20t67 -58q4 26 17 44t43 34zM360 94q32 25 48 76v142
q-16 51 -48.5 75.5t-83.5 24.5q-63 0 -100.5 -45t-37.5 -116v-21q0 -71 37 -116t101 -45q52 0 84 25zM175.5 578q-41.5 41 -41.5 109h64q3 -40 26 -63t63 -23t63.5 23t25.5 63h64q0 -68 -41.5 -109t-111.5 -41t-111.5 41z" />
    <glyph glyph-name="gcaron" unicode="&#x1e7;" horiz-adv-x="578" 
d="M533 429q-21 -16 -29 -29.5t-8 -34.5v-393q0 -88 -47 -130t-147 -42h-124v69h124q53 0 79.5 25.5t26.5 77.5v100q-49 -72 -152 -72q-95 0 -150.5 62t-55.5 168v21q0 67 24.5 119t71 81.5t110.5 29.5q51 0 91 -20t67 -58q4 26 17 44t43 34zM360 94q32 25 48 76v142
q-16 51 -48.5 75.5t-83.5 24.5q-63 0 -100.5 -45t-37.5 -116v-21q0 -71 37 -116t101 -45q52 0 84 25zM193 629.5q-37 44.5 -66 67.5h82q22 -18 45 -44t33 -46q9 19 32 45.5t45 44.5h81q-28 -22 -64.5 -66.5t-59.5 -86.5h-69q-22 41 -59 85.5z" />
    <glyph glyph-name="gcircumflex" unicode="&#x11d;" horiz-adv-x="578" 
d="M533 429q-21 -16 -29 -29.5t-8 -34.5v-393q0 -88 -47 -130t-147 -42h-124v69h124q53 0 79.5 25.5t26.5 77.5v100q-49 -72 -152 -72q-95 0 -150.5 62t-55.5 168v21q0 67 24.5 119t71 81.5t110.5 29.5q51 0 91 -20t67 -58q4 26 17 44t43 34zM360 94q32 25 48 76v142
q-16 51 -48.5 75.5t-83.5 24.5q-63 0 -100.5 -45t-37.5 -116v-21q0 -71 37 -116t101 -45q52 0 84 25zM193 610.5q37 44.5 59 86.5h69q23 -43 59.5 -87t64.5 -66h-81q-22 17 -44.5 43t-32.5 45q-10 -19 -33.5 -45t-44.5 -43h-82q29 22 66 66.5z" />
    <glyph glyph-name="uni0123" unicode="&#x123;" horiz-adv-x="578" 
d="M243 552.5q-16 19.5 -16 52.5q0 85 84 151l28 -27q-51 -38 -58 -84q11 6 26 6q20 0 31.5 -13.5t11.5 -36.5q0 -25 -18 -46.5t-45 -21.5q-28 0 -44 19.5zM533 429q-21 -16 -29 -29.5t-8 -34.5v-393q0 -88 -47 -130t-147 -42h-124v69h124q53 0 79.5 25.5t26.5 77.5v100
q-49 -72 -152 -72q-95 0 -150.5 62t-55.5 168v21q0 67 24.5 119t71 81.5t110.5 29.5q51 0 91 -20t67 -58q4 26 17 44t43 34zM360 94q32 25 48 76v142q-16 51 -48.5 75.5t-83.5 24.5q-63 0 -100.5 -45t-37.5 -116v-21q0 -71 37 -116t101 -45q52 0 84 25z" />
    <glyph glyph-name="gdotaccent" unicode="&#x121;" horiz-adv-x="578" 
d="M533 429q-21 -16 -29 -29.5t-8 -34.5v-393q0 -88 -47 -130t-147 -42h-124v69h124q53 0 79.5 25.5t26.5 77.5v100q-49 -72 -152 -72q-95 0 -150.5 62t-55.5 168v21q0 67 24.5 119t71 81.5t110.5 29.5q51 0 91 -20t67 -58q4 26 17 44t43 34zM360 94q32 25 48 76v142
q-16 51 -48.5 75.5t-83.5 24.5q-63 0 -100.5 -45t-37.5 -116v-21q0 -71 37 -116t101 -45q52 0 84 25zM248 556.5q-16 16.5 -16 39.5t16 39.5t39 16.5q22 0 38.5 -16.5t16.5 -39.5t-16.5 -39.5t-38.5 -16.5q-23 0 -39 16.5z" />
    <glyph glyph-name="uni1E21" unicode="&#x1e21;" horiz-adv-x="578" 
d="M533 429q-21 -16 -29 -29.5t-8 -34.5v-393q0 -88 -47 -130t-147 -42h-124v69h124q53 0 79.5 25.5t26.5 77.5v100q-49 -72 -152 -72q-95 0 -150.5 62t-55.5 168v21q0 67 24.5 119t71 81.5t110.5 29.5q51 0 91 -20t67 -58q4 26 17 44t43 34zM360 94q32 25 48 76v142
q-16 51 -48.5 75.5t-83.5 24.5q-63 0 -100.5 -45t-37.5 -116v-21q0 -71 37 -116t101 -45q52 0 84 25zM133 626h307v-64h-307v64z" />
    <glyph glyph-name="h" unicode="h" horiz-adv-x="549" 
d="M438.5 439q40.5 -42 40.5 -118v-321h-88v310q0 48 -23.5 75t-65.5 27q-48 0 -82 -33t-50 -89v-290h-88v617q0 21 -8 34.5t-29 29.5l58 52q38 -20 52.5 -45.5t14.5 -70.5v-225q23 42 62.5 65.5t92.5 23.5q73 0 113.5 -42z" />
    <glyph glyph-name="hbar" unicode="&#x127;" horiz-adv-x="549" 
d="M438.5 439q40.5 -42 40.5 -118v-321h-88v310q0 48 -23.5 75t-65.5 27q-48 0 -82 -33t-50 -89v-290h-88v552h-79v49h79v16q0 21 -8 34.5t-29 29.5l58 52q38 -20 52.5 -45.5t14.5 -70.5v-16h162v-49h-162v-160q23 42 62.5 65.5t92.5 23.5q73 0 113.5 -42z" />
    <glyph glyph-name="uni1E2B" unicode="&#x1e2b;" horiz-adv-x="549" 
d="M438.5 439q40.5 -42 40.5 -118v-321h-88v310q0 48 -23.5 75t-65.5 27q-48 0 -82 -33t-50 -89v-290h-88v617q0 21 -8 34.5t-29 29.5l58 52q38 -20 52.5 -45.5t14.5 -70.5v-225q23 42 62.5 65.5t92.5 23.5q73 0 113.5 -42zM169.5 -182.5q-41.5 42.5 -41.5 113.5h64
q3 -42 26 -66.5t63 -24.5t63.5 24.5t25.5 66.5h64q0 -71 -41.5 -113.5t-111.5 -42.5t-111.5 42.5z" />
    <glyph glyph-name="hcircumflex" unicode="&#x125;" horiz-adv-x="549" 
d="M438.5 439q40.5 -42 40.5 -118v-321h-88v310q0 48 -23.5 75t-65.5 27q-48 0 -82 -33t-50 -89v-290h-88v617q0 21 -8 34.5t-29 29.5l58 52q38 -20 52.5 -45.5t14.5 -70.5v-225q23 42 62.5 65.5t92.5 23.5q73 0 113.5 -42zM201 832.5q37 44.5 59 86.5h69q23 -43 59.5 -87
t64.5 -66h-81q-22 17 -44.5 43t-32.5 45q-10 -19 -33.5 -45t-44.5 -43h-82q29 22 66 66.5z" />
    <glyph glyph-name="uni1E25" unicode="&#x1e25;" horiz-adv-x="549" 
d="M438.5 439q40.5 -42 40.5 -118v-321h-88v310q0 48 -23.5 75t-65.5 27q-48 0 -82 -33t-50 -89v-290h-88v617q0 21 -8 34.5t-29 29.5l58 52q38 -20 52.5 -45.5t14.5 -70.5v-225q23 42 62.5 65.5t92.5 23.5q73 0 113.5 -42zM242 -156.5q-16 16.5 -16 39.5t16 39t39 16
q22 0 38.5 -16.5t16.5 -38.5q0 -23 -16 -39.5t-39 -16.5t-39 16.5z" />
    <glyph glyph-name="i" unicode="i" horiz-adv-x="259" 
d="M88.5 578.5q-16.5 16.5 -16.5 39.5t16.5 39.5t39.5 16.5t39.5 -16.5t16.5 -39.5t-16.5 -39.5t-39.5 -16.5t-39.5 16.5zM98.5 34.5q-14.5 25.5 -14.5 70.5v365h88v-365q0 -21 8 -34.5t29 -29.5l-59 -52q-37 20 -51.5 45.5z" />
    <glyph glyph-name="dotlessi" unicode="&#x131;" horiz-adv-x="259" 
d="M98.5 34.5q-14.5 25.5 -14.5 70.5v365h88v-365q0 -21 8 -34.5t29 -29.5l-58 -52q-38 20 -52.5 45.5z" />
    <glyph glyph-name="iacute" unicode="&#xed;" horiz-adv-x="259" 
d="M98.5 34.5q-14.5 25.5 -14.5 70.5v365h88v-365q0 -21 8 -34.5t29 -29.5l-58 -52q-38 20 -52.5 45.5zM170 693h95l-103 -149h-72z" />
    <glyph glyph-name="ibreve" unicode="&#x12d;" horiz-adv-x="259" 
d="M98.5 34.5q-14.5 25.5 -14.5 70.5v365h88v-365q0 -21 8 -34.5t29 -29.5l-58 -52q-38 20 -52.5 45.5zM17.5 578q-41.5 41 -41.5 109h64q3 -40 26 -63t63 -23t63.5 23t25.5 63h64q0 -68 -41.5 -109t-111.5 -41t-111.5 41z" />
    <glyph glyph-name="uni01D0" unicode="&#x1d0;" horiz-adv-x="259" 
d="M98.5 34.5q-14.5 25.5 -14.5 70.5v365h88v-365q0 -21 8 -34.5t29 -29.5l-58 -52q-38 20 -52.5 45.5zM35 629.5q-37 44.5 -66 67.5h82q22 -18 45 -44t33 -46q9 19 32 45.5t45 44.5h81q-28 -22 -64.5 -66.5t-59.5 -86.5h-69q-22 41 -59 85.5z" />
    <glyph glyph-name="icircumflex" unicode="&#xee;" horiz-adv-x="259" 
d="M98.5 34.5q-14.5 25.5 -14.5 70.5v365h88v-365q0 -21 8 -34.5t29 -29.5l-58 -52q-38 20 -52.5 45.5zM35 610.5q37 44.5 59 86.5h69q23 -43 59.5 -87t64.5 -66h-81q-22 17 -44.5 43t-32.5 45q-10 -19 -33.5 -45t-44.5 -43h-82q29 22 66 66.5z" />
    <glyph glyph-name="idieresis" unicode="&#xef;" horiz-adv-x="259" 
d="M98.5 34.5q-14.5 25.5 -14.5 70.5v365h88v-365q0 -21 8 -34.5t29 -29.5l-58 -52q-38 20 -52.5 45.5zM10.5 555q-14.5 15 -14.5 35t14.5 34.5t34.5 14.5q19 0 34 -14.5t15 -34.5t-14.5 -35t-34.5 -15t-34.5 15zM178.5 555q-14.5 15 -14.5 35t14.5 34.5t35.5 14.5
q19 0 34 -14.5t15 -34.5t-14.5 -35t-34.5 -15q-21 0 -35.5 15z" />
    <glyph glyph-name="uni1ECB" unicode="&#x1ecb;" horiz-adv-x="259" 
d="M88.5 578.5q-16.5 16.5 -16.5 39.5t16.5 39.5t39.5 16.5t39.5 -16.5t16.5 -39.5t-16.5 -39.5t-39.5 -16.5t-39.5 16.5zM98.5 34.5q-14.5 25.5 -14.5 70.5v365h88v-365q0 -21 8 -34.5t29 -29.5l-59 -52q-37 20 -51.5 45.5zM95 -156.5q-16 16.5 -16 39.5t16 39t39 16
q22 0 38.5 -16.5t16.5 -38.5q0 -23 -16 -39.5t-39 -16.5t-39 16.5z" />
    <glyph glyph-name="igrave" unicode="&#xec;" horiz-adv-x="259" 
d="M98.5 34.5q-14.5 25.5 -14.5 70.5v365h88v-365q0 -21 8 -34.5t29 -29.5l-58 -52q-38 20 -52.5 45.5zM-11 693h95l81 -149h-73z" />
    <glyph glyph-name="uni1EC9" unicode="&#x1ec9;" horiz-adv-x="259" 
d="M98.5 34.5q-14.5 25.5 -14.5 70.5v365h88v-365q0 -21 8 -34.5t29 -29.5l-58 -52q-38 20 -52.5 45.5zM158 581v-37h-67v70q44 4 62 14.5t18 29.5q0 20 -12 28t-35 8q-26 0 -54 -10l-15 49q36 17 78 17q50 0 79.5 -21.5t29.5 -64.5q0 -65 -84 -83z" />
    <glyph glyph-name="ij" unicode="&#x133;" horiz-adv-x="487" 
d="M88.5 578.5q-16.5 16.5 -16.5 39.5t16.5 39.5t39.5 16.5t39.5 -16.5t16.5 -39.5t-16.5 -39.5t-39.5 -16.5t-39.5 16.5zM98.5 34.5q-14.5 25.5 -14.5 70.5v365h88v-365q0 -21 8 -34.5t29 -29.5l-59 -52q-37 20 -51.5 45.5zM329.5 578.5q-16.5 16.5 -16.5 39.5t17 39.5
t39 16.5q23 0 39.5 -16.5t16.5 -39.5t-16.5 -39.5t-39.5 -16.5t-39.5 16.5zM170 -159h49q55 0 80.5 27.5t25.5 86.5v515h88v-515q0 -97 -45.5 -140t-148.5 -43h-49v69z" />
    <glyph glyph-name="imacron" unicode="&#x12b;" horiz-adv-x="259" 
d="M98.5 34.5q-14.5 25.5 -14.5 70.5v365h88v-365q0 -21 8 -34.5t29 -29.5l-58 -52q-38 20 -52.5 45.5zM-25 626h307v-64h-307v64z" />
    <glyph glyph-name="iogonek" unicode="&#x12f;" horiz-adv-x="259" 
d="M90.5 556.5q-16.5 16.5 -16.5 39.5t16.5 39.5t38.5 16.5q23 0 39.5 -16.5t16.5 -39.5t-16.5 -39.5t-39.5 -16.5q-22 0 -38.5 16.5zM243 -183q-37 -22 -77 -22q-64 0 -91.5 29t-27.5 65q0 69 65 128q-15 16 -21.5 36.5t-6.5 51.5v365h88v-365q0 -21 8 -34.5t29 -29.5
l-51 -46q-36 -52 -36 -93q0 -24 14.5 -35.5t37.5 -11.5t54 13z" />
    <glyph glyph-name="itilde" unicode="&#x129;" horiz-adv-x="259" 
d="M98.5 34.5q-14.5 25.5 -14.5 70.5v365h88v-365q0 -21 8 -34.5t29 -29.5l-58 -52q-38 20 -52.5 45.5zM-4 632.5q25 33.5 73 33.5q20 0 37 -6.5t39 -18.5q18 -9 28.5 -13.5t21.5 -4.5q16 0 24 11.5t12 36.5h58q-3 -49 -27.5 -82.5t-66.5 -33.5q-21 0 -38 6.5t-38 18.5
q-4 2 -14.5 7.5t-19 8t-16.5 2.5q-18 0 -27.5 -11.5t-14.5 -38.5h-58q2 51 27 84.5z" />
    <glyph glyph-name="j" unicode="j" horiz-adv-x="257" 
d="M99.5 578.5q-16.5 16.5 -16.5 39.5t17 39.5t39 16.5q23 0 39.5 -16.5t16.5 -39.5t-16.5 -39.5t-39.5 -16.5t-39.5 16.5zM-60 -159h49q55 0 80.5 27.5t25.5 86.5v515h88v-515q0 -97 -45.5 -140t-148.5 -43h-49v69z" />
    <glyph glyph-name="uni0237" unicode="&#x237;" horiz-adv-x="252" 
d="M-60 -158h49q55 0 80.5 27.5t25.5 86.5v514h88v-514q0 -97 -45.5 -140t-148.5 -43h-49v69z" />
    <glyph glyph-name="jcircumflex" unicode="&#x135;" horiz-adv-x="252" 
d="M-60 -158h49q55 0 80.5 27.5t25.5 86.5v514h88v-514q0 -97 -45.5 -140t-148.5 -43h-49v69zM45 610.5q37 44.5 59 86.5h69q23 -43 59.5 -87t64.5 -66h-81q-22 17 -44.5 43t-32.5 45q-10 -19 -33.5 -45t-44.5 -43h-82q29 22 66 66.5z" />
    <glyph glyph-name="k" unicode="k" horiz-adv-x="521" 
d="M488 0h-90l-43 163q-11 38 -31.5 56t-64.5 22l-89 -90v-151h-88v616q0 22 -7.5 35t-29.5 30l60 52q36 -20 50.5 -46t14.5 -71v-357l208 211h109l-165 -166q49 -10 77 -42.5t46 -98.5z" />
    <glyph glyph-name="uni0137" unicode="&#x137;" horiz-adv-x="521" 
d="M488 0h-90l-43 163q-11 38 -31.5 56t-64.5 22l-89 -90v-151h-88v616q0 22 -7.5 35t-29.5 30l60 52q36 -20 50.5 -46t14.5 -71v-357l208 211h109l-165 -166q49 -10 77 -42.5t46 -98.5zM318 -82.5q16 -19.5 16 -52.5q0 -85 -84 -151l-28 27q51 38 58 84q-11 -6 -26 -6
q-20 0 -31.5 13.5t-11.5 36.5q0 25 18 46.5t45 21.5q28 0 44 -19.5z" />
    <glyph glyph-name="kgreenlandic" unicode="&#x138;" horiz-adv-x="496" 
d="M464 0h-90l-56 163q-12 35 -34 50.5t-68 18.5l-83 -82v-150h-88v470h88v-212l213 212h109l-174 -173q50 -8 78.5 -39t49.5 -95z" />
    <glyph glyph-name="l" unicode="l" horiz-adv-x="251" 
d="M96.5 34.5q-14.5 25.5 -14.5 70.5v512q0 21 -8 34.5t-29 29.5l58 52q38 -20 52.5 -45.5t14.5 -70.5v-512q0 -21 7.5 -34.5t28.5 -29.5l-58 -52q-37 20 -51.5 45.5z" />
    <glyph glyph-name="lacute" unicode="&#x13a;" horiz-adv-x="251" 
d="M96.5 34.5q-14.5 25.5 -14.5 70.5v512q0 21 -8 34.5t-29 29.5l58 52q38 -20 52.5 -45.5t14.5 -70.5v-512q0 -21 7.5 -34.5t28.5 -29.5l-58 -52q-37 20 -51.5 45.5zM160 946h95l-103 -149h-72z" />
    <glyph glyph-name="lcaron" unicode="&#x13e;" horiz-adv-x="324" 
d="M96.5 34.5q-14.5 25.5 -14.5 70.5v512q0 21 -8 34.5t-29 29.5l58 52q38 -20 52.5 -45.5t14.5 -70.5v-512q0 -21 7.5 -34.5t28.5 -29.5l-58 -52q-37 20 -51.5 45.5zM316.5 706q15.5 -19 15.5 -53q0 -88 -84 -155l-28 28q52 40 58 87q-11 -6 -26 -6q-20 0 -31 13.5
t-11 37.5q0 25 18 46t44 21q29 0 44.5 -19z" />
    <glyph glyph-name="uni013C" unicode="&#x13c;" horiz-adv-x="251" 
d="M96.5 34.5q-14.5 25.5 -14.5 70.5v512q0 21 -8 34.5t-29 29.5l58 52q38 -20 52.5 -45.5t14.5 -70.5v-512q0 -21 7.5 -34.5t28.5 -29.5l-58 -52q-37 20 -51.5 45.5zM188 -82.5q16 -19.5 16 -52.5q0 -85 -84 -151l-28 27q51 38 58 84q-11 -6 -26 -6q-20 0 -31.5 13.5
t-11.5 36.5q0 25 18 46.5t45 21.5q28 0 44 -19.5z" />
    <glyph glyph-name="ldot" unicode="&#x140;" horiz-adv-x="367" 
d="M96.5 34.5q-14.5 25.5 -14.5 70.5v512q0 21 -8 34.5t-29 29.5l58 52q38 -20 52.5 -45.5t14.5 -70.5v-512q0 -21 7.5 -34.5t28.5 -29.5l-58 -52q-37 20 -51.5 45.5zM241 252.5q-20 19.5 -20 48.5t20 49.5t49 20.5q28 0 48 -20.5t20 -49.5q0 -28 -20 -48t-48 -20
q-29 0 -49 19.5z" />
    <glyph glyph-name="uni1E37" unicode="&#x1e37;" horiz-adv-x="251" 
d="M96.5 34.5q-14.5 25.5 -14.5 70.5v512q0 21 -8 34.5t-29 29.5l58 52q38 -20 52.5 -45.5t14.5 -70.5v-512q0 -21 7.5 -34.5t28.5 -29.5l-58 -52q-37 20 -51.5 45.5zM105 -156.5q-16 16.5 -16 39.5t16 39t39 16q22 0 38.5 -16.5t16.5 -38.5q0 -23 -16 -39.5t-39 -16.5
t-39 16.5z" />
    <glyph glyph-name="uni1E39" unicode="&#x1e39;" horiz-adv-x="251" 
d="M96.5 34.5q-14.5 25.5 -14.5 70.5v512q0 21 -8 34.5t-29 29.5l58 52q38 -20 52.5 -45.5t14.5 -70.5v-512q0 -21 7.5 -34.5t28.5 -29.5l-58 -52q-37 20 -51.5 45.5zM105 -156.5q-16 16.5 -16 39.5t16 39t39 16q22 0 38.5 -16.5t16.5 -38.5q0 -23 -16 -39.5t-39 -16.5
t-39 16.5zM-35 879h307v-64h-307v64z" />
    <glyph glyph-name="uni1E3B" unicode="&#x1e3b;" horiz-adv-x="251" 
d="M96.5 34.5q-14.5 25.5 -14.5 70.5v512q0 21 -8 34.5t-29 29.5l58 52q38 -20 52.5 -45.5t14.5 -70.5v-512q0 -21 7.5 -34.5t28.5 -29.5l-58 -52q-37 20 -51.5 45.5zM-10 -78h307v-65h-307v65z" />
    <glyph glyph-name="lslash" unicode="&#x142;" horiz-adv-x="256" 
d="M175 380v-275q0 -21 8 -34.5t29 -29.5l-59 -52q-37 20 -51.5 45.5t-14.5 70.5v214l-84 -58v77l84 58v221q0 21 -8 34.5t-29 29.5l59 52q38 -20 52 -45t14 -71v-160l79 54v-76z" />
    <glyph glyph-name="m" unicode="m" horiz-adv-x="822" 
d="M714.5 439.5q37.5 -41.5 37.5 -118.5v-321h-88v310q0 49 -21 75.5t-59 26.5q-45 0 -77.5 -34.5t-45.5 -92.5v-285h-88v310q0 49 -21 75.5t-59 26.5q-45 0 -78 -35.5t-45 -91.5v-285h-88v365q0 21 -8 34.5t-29 29.5l58 52q60 -30 65 -91q24 44 62 67.5t87 23.5
q55 0 89.5 -27.5t45.5 -79.5q18 49 59.5 78t96.5 29q69 0 106.5 -41.5z" />
    <glyph glyph-name="uni1E43" unicode="&#x1e43;" horiz-adv-x="822" 
d="M714.5 439.5q37.5 -41.5 37.5 -118.5v-321h-88v310q0 49 -21 75.5t-59 26.5q-45 0 -77.5 -34.5t-45.5 -92.5v-285h-88v310q0 49 -21 75.5t-59 26.5q-45 0 -78 -35.5t-45 -91.5v-285h-88v365q0 21 -8 34.5t-29 29.5l58 52q60 -30 65 -91q24 44 62 67.5t87 23.5
q55 0 89.5 -27.5t45.5 -79.5q18 49 59.5 78t96.5 29q69 0 106.5 -41.5zM377 -156.5q-16 16.5 -16 39.5t16 39t39 16q22 0 38.5 -16.5t16.5 -38.5q0 -23 -16 -39.5t-39 -16.5t-39 16.5z" />
    <glyph glyph-name="n" unicode="n" horiz-adv-x="549" 
d="M438.5 439q40.5 -42 40.5 -118v-321h-88v310q0 48 -24 75t-66 27q-47 0 -81 -33t-50 -89v-290h-88v365q0 21 -8 34.5t-29 29.5l58 52q32 -18 47 -38t19 -52q23 42 63 66t93 24q73 0 113.5 -42z" />
    <glyph glyph-name="nacute" unicode="&#x144;" horiz-adv-x="549" 
d="M438.5 439q40.5 -42 40.5 -118v-321h-88v310q0 48 -24 75t-66 27q-47 0 -81 -33t-50 -89v-290h-88v365q0 21 -8 34.5t-29 29.5l58 52q32 -18 47 -38t19 -52q23 42 63 66t93 24q73 0 113.5 -42zM322 693h95l-103 -149h-72z" />
    <glyph glyph-name="napostrophe" unicode="&#x149;" horiz-adv-x="608" 
d="M127.5 671q15.5 -19 15.5 -53q0 -88 -84 -155l-28 28q52 40 58 87q-11 -6 -26 -6q-20 0 -31 13.5t-11 37.5q0 25 18 46t44 21q29 0 44.5 -19zM497.5 439q40.5 -42 40.5 -118v-321h-88v310q0 48 -24 75t-66 27q-47 0 -81 -33t-50 -89v-290h-88v365q0 21 -8 34.5t-29 29.5
l58 52q32 -18 47 -38t19 -52q23 42 63 66t93 24q73 0 113.5 -42z" />
    <glyph glyph-name="ncaron" unicode="&#x148;" horiz-adv-x="549" 
d="M438.5 439q40.5 -42 40.5 -118v-321h-88v310q0 48 -24 75t-66 27q-47 0 -81 -33t-50 -89v-290h-88v365q0 21 -8 34.5t-29 29.5l58 52q32 -18 47 -38t19 -52q23 42 63 66t93 24q73 0 113.5 -42zM187 629.5q-37 44.5 -66 67.5h82q22 -18 45 -44t33 -46q9 19 32 45.5
t45 44.5h81q-28 -22 -64.5 -66.5t-59.5 -86.5h-69q-22 41 -59 85.5z" />
    <glyph glyph-name="uni0146" unicode="&#x146;" horiz-adv-x="549" 
d="M438.5 439q40.5 -42 40.5 -118v-321h-88v310q0 48 -24 75t-66 27q-47 0 -81 -33t-50 -89v-290h-88v365q0 21 -8 34.5t-29 29.5l58 52q32 -18 47 -38t19 -52q23 42 63 66t93 24q73 0 113.5 -42zM332 -82.5q16 -19.5 16 -52.5q0 -85 -84 -151l-28 27q51 38 58 84
q-11 -6 -26 -6q-20 0 -31.5 13.5t-11.5 36.5q0 25 18 46.5t45 21.5q28 0 44 -19.5z" />
    <glyph glyph-name="uni1E45" unicode="&#x1e45;" horiz-adv-x="549" 
d="M438.5 439q40.5 -42 40.5 -118v-321h-88v310q0 48 -24 75t-66 27q-47 0 -81 -33t-50 -89v-290h-88v365q0 21 -8 34.5t-29 29.5l58 52q32 -18 47 -38t19 -52q23 42 63 66t93 24q73 0 113.5 -42zM242 556.5q-16 16.5 -16 39.5t16 39.5t39 16.5q22 0 38.5 -16.5t16.5 -39.5
t-16.5 -39.5t-38.5 -16.5q-23 0 -39 16.5z" />
    <glyph glyph-name="uni1E47" unicode="&#x1e47;" horiz-adv-x="549" 
d="M438.5 439q40.5 -42 40.5 -118v-321h-88v310q0 48 -24 75t-66 27q-47 0 -81 -33t-50 -89v-290h-88v365q0 21 -8 34.5t-29 29.5l58 52q32 -18 47 -38t19 -52q23 42 63 66t93 24q73 0 113.5 -42zM249 -156.5q-16 16.5 -16 39.5t16 39t39 16q22 0 38.5 -16.5t16.5 -38.5
q0 -23 -16 -39.5t-39 -16.5t-39 16.5z" />
    <glyph glyph-name="eng" unicode="&#x14b;" horiz-adv-x="549" 
d="M438.5 439q40.5 -42 40.5 -118v-366q0 -97 -46 -140t-149 -43h-36v68h36q55 0 81 28t26 87v355q0 48 -24 75t-66 27q-48 0 -82 -34t-49 -91v-287h-88v365q0 21 -8 34.5t-29 29.5l58 52q32 -17 46.5 -38t17.5 -55q24 44 63.5 68.5t94.5 24.5q73 0 113.5 -42z" />
    <glyph glyph-name="uni1E49" unicode="&#x1e49;" horiz-adv-x="549" 
d="M438.5 439q40.5 -42 40.5 -118v-321h-88v310q0 48 -24 75t-66 27q-47 0 -81 -33t-50 -89v-290h-88v365q0 21 -8 34.5t-29 29.5l58 52q32 -18 47 -38t19 -52q23 42 63 66t93 24q73 0 113.5 -42zM134 -78h307v-65h-307v65z" />
    <glyph glyph-name="ntilde" unicode="&#xf1;" horiz-adv-x="549" 
d="M438.5 439q40.5 -42 40.5 -118v-321h-88v310q0 48 -24 75t-66 27q-47 0 -81 -33t-50 -89v-290h-88v365q0 21 -8 34.5t-29 29.5l58 52q32 -18 47 -38t19 -52q23 42 63 66t93 24q73 0 113.5 -42zM148 632.5q25 33.5 73 33.5q20 0 37 -6.5t39 -18.5q18 -9 28.5 -13.5
t21.5 -4.5q16 0 24 11.5t12 36.5h58q-3 -49 -27.5 -82.5t-66.5 -33.5q-21 0 -38 6.5t-38 18.5q-4 2 -14.5 7.5t-19 8t-16.5 2.5q-18 0 -27.5 -11.5t-14.5 -38.5h-58q2 51 27 84.5z" />
    <glyph glyph-name="o" unicode="o" horiz-adv-x="519" 
d="M108.5 36.5q-53.5 47.5 -53.5 134.5v128q0 87 53.5 134.5t151.5 47.5t151 -47.5t53 -134.5v-128q0 -87 -53 -134.5t-151 -47.5t-151.5 47.5zM345.5 87.5q30.5 29.5 30.5 83.5v128q0 54 -30.5 83.5t-85.5 29.5q-56 0 -86.5 -29.5t-30.5 -83.5v-128q0 -54 30.5 -83.5
t86.5 -29.5q55 0 85.5 29.5z" />
    <glyph glyph-name="oacute" unicode="&#xf3;" horiz-adv-x="519" 
d="M108.5 36.5q-53.5 47.5 -53.5 134.5v128q0 87 53.5 134.5t151.5 47.5t151 -47.5t53 -134.5v-128q0 -87 -53 -134.5t-151 -47.5t-151.5 47.5zM345.5 87.5q30.5 29.5 30.5 83.5v128q0 54 -30.5 83.5t-85.5 29.5q-56 0 -86.5 -29.5t-30.5 -83.5v-128q0 -54 30.5 -83.5
t86.5 -29.5q55 0 85.5 29.5zM301 693h95l-103 -149h-72z" />
    <glyph glyph-name="obreve" unicode="&#x14f;" horiz-adv-x="519" 
d="M108.5 36.5q-53.5 47.5 -53.5 134.5v128q0 87 53.5 134.5t151.5 47.5t151 -47.5t53 -134.5v-128q0 -87 -53 -134.5t-151 -47.5t-151.5 47.5zM345.5 87.5q30.5 29.5 30.5 83.5v128q0 54 -30.5 83.5t-85.5 29.5q-56 0 -86.5 -29.5t-30.5 -83.5v-128q0 -54 30.5 -83.5
t86.5 -29.5q55 0 85.5 29.5zM148.5 578q-41.5 41 -41.5 109h64q3 -40 26 -63t63 -23t63.5 23t25.5 63h64q0 -68 -41.5 -109t-111.5 -41t-111.5 41z" />
    <glyph glyph-name="uni01D2" unicode="&#x1d2;" horiz-adv-x="519" 
d="M108.5 36.5q-53.5 47.5 -53.5 134.5v128q0 87 53.5 134.5t151.5 47.5t151 -47.5t53 -134.5v-128q0 -87 -53 -134.5t-151 -47.5t-151.5 47.5zM345.5 87.5q30.5 29.5 30.5 83.5v128q0 54 -30.5 83.5t-85.5 29.5q-56 0 -86.5 -29.5t-30.5 -83.5v-128q0 -54 30.5 -83.5
t86.5 -29.5q55 0 85.5 29.5zM166 629.5q-37 44.5 -66 67.5h82q22 -18 45 -44t33 -46q9 19 32 45.5t45 44.5h81q-28 -22 -64.5 -66.5t-59.5 -86.5h-69q-22 41 -59 85.5z" />
    <glyph glyph-name="ocircumflex" unicode="&#xf4;" horiz-adv-x="519" 
d="M108.5 36.5q-53.5 47.5 -53.5 134.5v128q0 87 53.5 134.5t151.5 47.5t151 -47.5t53 -134.5v-128q0 -87 -53 -134.5t-151 -47.5t-151.5 47.5zM345.5 87.5q30.5 29.5 30.5 83.5v128q0 54 -30.5 83.5t-85.5 29.5q-56 0 -86.5 -29.5t-30.5 -83.5v-128q0 -54 30.5 -83.5
t86.5 -29.5q55 0 85.5 29.5zM166 610.5q37 44.5 59 86.5h69q23 -43 59.5 -87t64.5 -66h-81q-22 17 -44.5 43t-32.5 45q-10 -19 -33.5 -45t-44.5 -43h-82q29 22 66 66.5z" />
    <glyph glyph-name="uni1ED1" unicode="&#x1ed1;" horiz-adv-x="519" 
d="M108.5 36.5q-53.5 47.5 -53.5 134.5v128q0 87 53.5 134.5t151.5 47.5t151 -47.5t53 -134.5v-128q0 -87 -53 -134.5t-151 -47.5t-151.5 47.5zM345.5 87.5q30.5 29.5 30.5 83.5v128q0 54 -30.5 83.5t-85.5 29.5q-56 0 -86.5 -29.5t-30.5 -83.5v-128q0 -54 30.5 -83.5
t86.5 -29.5q55 0 85.5 29.5zM431 753h89l-84 -116h-68zM166 610.5q37 44.5 59 86.5h69q23 -43 59.5 -87t64.5 -66h-81q-22 17 -44.5 43t-32.5 45q-10 -19 -33.5 -45t-44.5 -43h-82q29 22 66 66.5z" />
    <glyph glyph-name="uni1ED9" unicode="&#x1ed9;" horiz-adv-x="519" 
d="M108.5 36.5q-53.5 47.5 -53.5 134.5v128q0 87 53.5 134.5t151.5 47.5t151 -47.5t53 -134.5v-128q0 -87 -53 -134.5t-151 -47.5t-151.5 47.5zM345.5 87.5q30.5 29.5 30.5 83.5v128q0 54 -30.5 83.5t-85.5 29.5q-56 0 -86.5 -29.5t-30.5 -83.5v-128q0 -54 30.5 -83.5
t86.5 -29.5q55 0 85.5 29.5zM221 -156.5q-16 16.5 -16 39.5t16 39t39 16q22 0 38.5 -16.5t16.5 -38.5q0 -23 -16 -39.5t-39 -16.5t-39 16.5zM166 610.5q37 44.5 59 86.5h69q23 -43 59.5 -87t64.5 -66h-81q-22 17 -44.5 43t-32.5 45q-10 -19 -33.5 -45t-44.5 -43h-82
q29 22 66 66.5z" />
    <glyph glyph-name="uni1ED3" unicode="&#x1ed3;" horiz-adv-x="519" 
d="M108.5 36.5q-53.5 47.5 -53.5 134.5v128q0 87 53.5 134.5t151.5 47.5t151 -47.5t53 -134.5v-128q0 -87 -53 -134.5t-151 -47.5t-151.5 47.5zM345.5 87.5q30.5 29.5 30.5 83.5v128q0 54 -30.5 83.5t-85.5 29.5q-56 0 -86.5 -29.5t-30.5 -83.5v-128q0 -54 30.5 -83.5
t86.5 -29.5q55 0 85.5 29.5zM336 753h89l63 -116h-68zM166 610.5q37 44.5 59 86.5h69q23 -43 59.5 -87t64.5 -66h-81q-22 17 -44.5 43t-32.5 45q-10 -19 -33.5 -45t-44.5 -43h-82q29 22 66 66.5z" />
    <glyph glyph-name="uni1ED5" unicode="&#x1ed5;" horiz-adv-x="519" 
d="M108.5 36.5q-53.5 47.5 -53.5 134.5v128q0 87 53.5 134.5t151.5 47.5t151 -47.5t53 -134.5v-128q0 -87 -53 -134.5t-151 -47.5t-151.5 47.5zM345.5 87.5q30.5 29.5 30.5 83.5v128q0 54 -30.5 83.5t-85.5 29.5q-56 0 -86.5 -29.5t-30.5 -83.5v-128q0 -54 30.5 -83.5
t86.5 -29.5q55 0 85.5 29.5zM485 692.5q-18 -16.5 -51 -24.5v-34h-59v64q39 4 55 11.5t16 23.5q0 18 -10 24t-32 6q-24 0 -49 -10l-14 45q33 14 71 14q42 0 66.5 -17.5t24.5 -54.5q0 -31 -18 -47.5zM353.5 610q36.5 -44 64.5 -66h-81q-22 17 -44.5 43t-32.5 45
q-10 -19 -33.5 -45t-44.5 -43h-82q29 22 66 66.5t59 86.5h69q23 -43 59.5 -87z" />
    <glyph glyph-name="uni1ED7" unicode="&#x1ed7;" horiz-adv-x="519" 
d="M108.5 36.5q-53.5 47.5 -53.5 134.5v128q0 87 53.5 134.5t151.5 47.5t151 -47.5t53 -134.5v-128q0 -87 -53 -134.5t-151 -47.5t-151.5 47.5zM345.5 87.5q30.5 29.5 30.5 83.5v128q0 54 -30.5 83.5t-85.5 29.5q-56 0 -86.5 -29.5t-30.5 -83.5v-128q0 -54 30.5 -83.5
t86.5 -29.5q55 0 85.5 29.5zM136 801.5q24 29.5 68 29.5q18 0 33 -5.5t37 -16.5q12 -6 24 -11t22 -5q15 0 23 10.5t12 33.5h53q-3 -43 -26.5 -73t-61.5 -30q-19 0 -34.5 5.5t-35.5 16.5l-12 6t-18.5 7.5t-15.5 2.5q-17 0 -26 -10.5t-14 -34.5h-54q2 45 26 74.5zM166 610.5
q37 44.5 59 86.5h69q23 -43 59.5 -87t64.5 -66h-81q-22 17 -44.5 43t-32.5 45q-10 -19 -33.5 -45t-44.5 -43h-82q29 22 66 66.5z" />
    <glyph glyph-name="odieresis" unicode="&#xf6;" horiz-adv-x="519" 
d="M108.5 36.5q-53.5 47.5 -53.5 134.5v128q0 87 53.5 134.5t151.5 47.5t151 -47.5t53 -134.5v-128q0 -87 -53 -134.5t-151 -47.5t-151.5 47.5zM345.5 87.5q30.5 29.5 30.5 83.5v128q0 54 -30.5 83.5t-85.5 29.5q-56 0 -86.5 -29.5t-30.5 -83.5v-128q0 -54 30.5 -83.5
t86.5 -29.5q55 0 85.5 29.5zM141.5 555q-14.5 15 -14.5 35t14.5 34.5t34.5 14.5q19 0 34 -14.5t15 -34.5t-14.5 -35t-34.5 -15t-34.5 15zM309.5 555q-14.5 15 -14.5 35t14.5 34.5t35.5 14.5q19 0 34 -14.5t15 -34.5t-14.5 -35t-34.5 -15q-21 0 -35.5 15z" />
    <glyph glyph-name="uni1ECD" unicode="&#x1ecd;" horiz-adv-x="519" 
d="M108.5 36.5q-53.5 47.5 -53.5 134.5v128q0 87 53.5 134.5t151.5 47.5t151 -47.5t53 -134.5v-128q0 -87 -53 -134.5t-151 -47.5t-151.5 47.5zM345.5 87.5q30.5 29.5 30.5 83.5v128q0 54 -30.5 83.5t-85.5 29.5q-56 0 -86.5 -29.5t-30.5 -83.5v-128q0 -54 30.5 -83.5
t86.5 -29.5q55 0 85.5 29.5zM221 -156.5q-16 16.5 -16 39.5t16 39t39 16q22 0 38.5 -16.5t16.5 -38.5q0 -23 -16 -39.5t-39 -16.5t-39 16.5z" />
    <glyph glyph-name="ograve" unicode="&#xf2;" horiz-adv-x="519" 
d="M108.5 36.5q-53.5 47.5 -53.5 134.5v128q0 87 53.5 134.5t151.5 47.5t151 -47.5t53 -134.5v-128q0 -87 -53 -134.5t-151 -47.5t-151.5 47.5zM345.5 87.5q30.5 29.5 30.5 83.5v128q0 54 -30.5 83.5t-85.5 29.5q-56 0 -86.5 -29.5t-30.5 -83.5v-128q0 -54 30.5 -83.5
t86.5 -29.5q55 0 85.5 29.5zM120 693h95l81 -149h-73z" />
    <glyph glyph-name="uni1ECF" unicode="&#x1ecf;" horiz-adv-x="519" 
d="M108.5 36.5q-53.5 47.5 -53.5 134.5v128q0 87 53.5 134.5t151.5 47.5t151 -47.5t53 -134.5v-128q0 -87 -53 -134.5t-151 -47.5t-151.5 47.5zM345.5 87.5q30.5 29.5 30.5 83.5v128q0 54 -30.5 83.5t-85.5 29.5q-56 0 -86.5 -29.5t-30.5 -83.5v-128q0 -54 30.5 -83.5
t86.5 -29.5q55 0 85.5 29.5zM289 581v-37h-67v70q44 4 62 14.5t18 29.5q0 20 -12 28t-35 8q-26 0 -54 -10l-15 49q36 17 78 17q50 0 79.5 -21.5t29.5 -64.5q0 -65 -84 -83z" />
    <glyph glyph-name="ohorn" unicode="&#x1a1;" horiz-adv-x="544" 
d="M552.5 393.5q-28.5 -43.5 -91.5 -54.5q3 -19 3 -40v-128q0 -87 -53 -134.5t-151 -47.5t-151.5 47.5t-53.5 134.5v128q0 87 53.5 134.5t151.5 47.5q69 0 116 -24t69 -69q32 10 44.5 42.5t13.5 92.5h80q-2 -86 -30.5 -129.5zM376 299q0 54 -30.5 83.5t-85.5 29.5
q-56 0 -86.5 -29.5t-30.5 -83.5v-128q0 -54 30.5 -83.5t86.5 -29.5q55 0 85.5 29.5t30.5 83.5v128z" />
    <glyph glyph-name="uni1EDB" unicode="&#x1edb;" horiz-adv-x="544" 
d="M552.5 393.5q-28.5 -43.5 -91.5 -54.5q3 -19 3 -40v-128q0 -87 -53 -134.5t-151 -47.5t-151.5 47.5t-53.5 134.5v128q0 87 53.5 134.5t151.5 47.5q69 0 116 -24t69 -69q32 10 44.5 42.5t13.5 92.5h80q-2 -86 -30.5 -129.5zM376 299q0 54 -30.5 83.5t-85.5 29.5
q-56 0 -86.5 -29.5t-30.5 -83.5v-128q0 -54 30.5 -83.5t86.5 -29.5q55 0 85.5 29.5t30.5 83.5v128zM301 693h95l-103 -149h-72z" />
    <glyph glyph-name="uni1EE3" unicode="&#x1ee3;" horiz-adv-x="544" 
d="M552.5 393.5q-28.5 -43.5 -91.5 -54.5q3 -19 3 -40v-128q0 -87 -53 -134.5t-151 -47.5t-151.5 47.5t-53.5 134.5v128q0 87 53.5 134.5t151.5 47.5q69 0 116 -24t69 -69q32 10 44.5 42.5t13.5 92.5h80q-2 -86 -30.5 -129.5zM376 299q0 54 -30.5 83.5t-85.5 29.5
q-56 0 -86.5 -29.5t-30.5 -83.5v-128q0 -54 30.5 -83.5t86.5 -29.5q55 0 85.5 29.5t30.5 83.5v128zM221 -156.5q-16 16.5 -16 39.5t16 39t39 16q22 0 38.5 -16.5t16.5 -38.5q0 -23 -16 -39.5t-39 -16.5t-39 16.5z" />
    <glyph glyph-name="uni1EDD" unicode="&#x1edd;" horiz-adv-x="544" 
d="M552.5 393.5q-28.5 -43.5 -91.5 -54.5q3 -19 3 -40v-128q0 -87 -53 -134.5t-151 -47.5t-151.5 47.5t-53.5 134.5v128q0 87 53.5 134.5t151.5 47.5q69 0 116 -24t69 -69q32 10 44.5 42.5t13.5 92.5h80q-2 -86 -30.5 -129.5zM376 299q0 54 -30.5 83.5t-85.5 29.5
q-56 0 -86.5 -29.5t-30.5 -83.5v-128q0 -54 30.5 -83.5t86.5 -29.5q55 0 85.5 29.5t30.5 83.5v128zM120 693h95l81 -149h-73z" />
    <glyph glyph-name="uni1EDF" unicode="&#x1edf;" horiz-adv-x="544" 
d="M552.5 393.5q-28.5 -43.5 -91.5 -54.5q3 -19 3 -40v-128q0 -87 -53 -134.5t-151 -47.5t-151.5 47.5t-53.5 134.5v128q0 87 53.5 134.5t151.5 47.5q69 0 116 -24t69 -69q32 10 44.5 42.5t13.5 92.5h80q-2 -86 -30.5 -129.5zM376 299q0 54 -30.5 83.5t-85.5 29.5
q-56 0 -86.5 -29.5t-30.5 -83.5v-128q0 -54 30.5 -83.5t86.5 -29.5q55 0 85.5 29.5t30.5 83.5v128zM289 581v-37h-67v70q44 4 62 14.5t18 29.5q0 20 -12 28t-35 8q-26 0 -54 -10l-15 49q36 17 78 17q50 0 79.5 -21.5t29.5 -64.5q0 -65 -84 -83z" />
    <glyph glyph-name="uni1EE1" unicode="&#x1ee1;" horiz-adv-x="544" 
d="M552.5 393.5q-28.5 -43.5 -91.5 -54.5q3 -19 3 -40v-128q0 -87 -53 -134.5t-151 -47.5t-151.5 47.5t-53.5 134.5v128q0 87 53.5 134.5t151.5 47.5q69 0 116 -24t69 -69q32 10 44.5 42.5t13.5 92.5h80q-2 -86 -30.5 -129.5zM376 299q0 54 -30.5 83.5t-85.5 29.5
q-56 0 -86.5 -29.5t-30.5 -83.5v-128q0 -54 30.5 -83.5t86.5 -29.5q55 0 85.5 29.5t30.5 83.5v128zM127 632.5q25 33.5 73 33.5q20 0 37 -6.5t39 -18.5q18 -9 28.5 -13.5t21.5 -4.5q16 0 24 11.5t12 36.5h58q-3 -49 -27.5 -82.5t-66.5 -33.5q-21 0 -38 6.5t-38 18.5
q-4 2 -14.5 7.5t-19 8t-16.5 2.5q-18 0 -27.5 -11.5t-14.5 -38.5h-58q2 51 27 84.5z" />
    <glyph glyph-name="ohungarumlaut" unicode="&#x151;" horiz-adv-x="519" 
d="M108.5 36.5q-53.5 47.5 -53.5 134.5v128q0 87 53.5 134.5t151.5 47.5t151 -47.5t53 -134.5v-128q0 -87 -53 -134.5t-151 -47.5t-151.5 47.5zM345.5 87.5q30.5 29.5 30.5 83.5v128q0 54 -30.5 83.5t-85.5 29.5q-56 0 -86.5 -29.5t-30.5 -83.5v-128q0 -54 30.5 -83.5
t86.5 -29.5q55 0 85.5 29.5zM208 693h83l-81 -149h-67zM373 693h83l-81 -149h-67z" />
    <glyph glyph-name="omacron" unicode="&#x14d;" horiz-adv-x="519" 
d="M108.5 36.5q-53.5 47.5 -53.5 134.5v128q0 87 53.5 134.5t151.5 47.5t151 -47.5t53 -134.5v-128q0 -87 -53 -134.5t-151 -47.5t-151.5 47.5zM345.5 87.5q30.5 29.5 30.5 83.5v128q0 54 -30.5 83.5t-85.5 29.5q-56 0 -86.5 -29.5t-30.5 -83.5v-128q0 -54 30.5 -83.5
t86.5 -29.5q55 0 85.5 29.5zM106 626h307v-64h-307v64z" />
    <glyph glyph-name="oslash" unicode="&#xf8;" horiz-adv-x="519" 
d="M464 299v-128q0 -87 -53 -134.5t-151 -47.5q-55 0 -97 15l-33 -64h-52l44 86q-67 47 -67 145v128q0 87 53.5 134.5t151.5 47.5q52 0 88 -13l32 62h52l-42 -81q74 -48 74 -150zM161 102l154 300q-23 10 -55 10q-56 0 -86.5 -29.5t-30.5 -83.5v-128q0 -42 18 -69zM376 299
q0 47 -23 76l-156 -304q25 -13 63 -13q55 0 85.5 29.5t30.5 83.5v128z" />
    <glyph glyph-name="oslashacute" unicode="&#x1ff;" horiz-adv-x="519" 
d="M464 299v-128q0 -87 -53 -134.5t-151 -47.5q-55 0 -97 15l-33 -64h-52l44 86q-67 47 -67 145v128q0 87 53.5 134.5t151.5 47.5q52 0 88 -13l32 62h52l-42 -81q74 -48 74 -150zM161 102l154 300q-23 10 -55 10q-56 0 -86.5 -29.5t-30.5 -83.5v-128q0 -42 18 -69zM376 299
q0 47 -23 76l-156 -304q25 -13 63 -13q55 0 85.5 29.5t30.5 83.5v128zM301 693h95l-103 -149h-72z" />
    <glyph glyph-name="otilde" unicode="&#xf5;" horiz-adv-x="519" 
d="M108.5 36.5q-53.5 47.5 -53.5 134.5v128q0 87 53.5 134.5t151.5 47.5t151 -47.5t53 -134.5v-128q0 -87 -53 -134.5t-151 -47.5t-151.5 47.5zM345.5 87.5q30.5 29.5 30.5 83.5v128q0 54 -30.5 83.5t-85.5 29.5q-56 0 -86.5 -29.5t-30.5 -83.5v-128q0 -54 30.5 -83.5
t86.5 -29.5q55 0 85.5 29.5zM127 632.5q25 33.5 73 33.5q20 0 37 -6.5t39 -18.5q18 -9 28.5 -13.5t21.5 -4.5q16 0 24 11.5t12 36.5h58q-3 -49 -27.5 -82.5t-66.5 -33.5q-21 0 -38 6.5t-38 18.5q-4 2 -14.5 7.5t-19 8t-16.5 2.5q-18 0 -27.5 -11.5t-14.5 -38.5h-58
q2 51 27 84.5z" />
    <glyph glyph-name="oe" unicode="&#x153;" horiz-adv-x="817" 
d="M108 36.5q-53 47.5 -53 134.5v128q0 87 53.5 134.5t151.5 47.5q110 0 161 -71q47 70 157 70q94 0 146.5 -47t52.5 -135q0 -39 -8.5 -61t-29.5 -31.5t-60 -9.5h-215v-31q0 -54 30.5 -80.5t92.5 -26.5q41 0 70 12t57 39l54 -50q-59 -70 -181 -70q-125 0 -169 68
q-51 -68 -160 -68q-97 0 -150 47.5zM345.5 87.5q30.5 29.5 30.5 83.5v128q0 54 -30.5 83.5t-85.5 29.5q-56 0 -86.5 -29.5t-30.5 -83.5v-128q0 -54 30.5 -83.5t86.5 -29.5q55 0 85.5 29.5zM635 259q31 0 42.5 10t11.5 38q0 49 -30 76.5t-83 27.5q-52 0 -82 -27.5t-30 -75.5
v-49h171z" />
    <glyph glyph-name="p" unicode="p" horiz-adv-x="578" 
d="M435.5 449.5q46.5 -31.5 69.5 -84t23 -114.5v-32q0 -62 -23 -114.5t-69.5 -84t-112.5 -31.5q-60 0 -95.5 19.5t-57.5 52.5v-280h-88v584q0 21 -8 34.5t-29 29.5l58 52q29 -16 43.5 -34t18.5 -45q52 79 158 79q66 0 112.5 -31.5zM440 251q0 71 -37.5 116t-100.5 45
q-102 0 -132 -99v-156q30 -99 132 -99q63 0 100.5 45t37.5 116v32z" />
    <glyph glyph-name="thorn" unicode="&#xfe;" horiz-adv-x="578" 
d="M82 617q0 21 -8 34.5t-29 29.5l58 52q38 -20 52.5 -45.5t14.5 -70.5v-211q49 75 153 75q63 0 109.5 -29.5t71 -81.5t24.5 -119v-32q0 -67 -25 -119t-71.5 -81.5t-110.5 -29.5q-104 0 -151 72v-280h-88v836zM402.5 103q37.5 45 37.5 116v32q0 71 -37.5 116t-100.5 45
q-102 0 -132 -99v-156q30 -99 132 -99q63 0 100.5 45z" />
    <glyph glyph-name="q" unicode="q" horiz-adv-x="558" 
d="M408 61q-24 -34 -62.5 -53t-90.5 -19q-94 0 -149.5 62.5t-55.5 167.5v32q0 67 25 119t71.5 81.5t109.5 29.5q102 0 152 -69v59h88v-689h-88v279zM359.5 82.5q32.5 24.5 48.5 74.5v156q-16 50 -48.5 74.5t-83.5 24.5q-64 0 -101 -45t-37 -116v-32q0 -71 37 -116t101 -45
q51 0 83.5 24.5z" />
    <glyph glyph-name="r" unicode="r" horiz-adv-x="398" 
d="M388 460l-22 -77q-34 20 -72 20q-45 0 -77 -38t-47 -102v-263h-88v365q0 21 -8 34.5t-29 29.5l59 52q35 -19 49.5 -41.5t16.5 -62.5q22 49 59 76.5t87 27.5q43 0 72 -21z" />
    <glyph glyph-name="racute" unicode="&#x155;" horiz-adv-x="398" 
d="M388 460l-22 -77q-34 20 -72 20q-45 0 -77 -38t-47 -102v-263h-88v365q0 21 -8 34.5t-29 29.5l59 52q35 -19 49.5 -41.5t16.5 -62.5q22 49 59 76.5t87 27.5q43 0 72 -21zM240 693h95l-103 -149h-72z" />
    <glyph glyph-name="rcaron" unicode="&#x159;" horiz-adv-x="398" 
d="M388 460l-22 -77q-34 20 -72 20q-45 0 -77 -38t-47 -102v-263h-88v365q0 21 -8 34.5t-29 29.5l59 52q35 -19 49.5 -41.5t16.5 -62.5q22 49 59 76.5t87 27.5q43 0 72 -21zM105 629.5q-37 44.5 -66 67.5h82q22 -18 45 -44t33 -46q9 19 32 45.5t45 44.5h81
q-28 -22 -64.5 -66.5t-59.5 -86.5h-69q-22 41 -59 85.5z" />
    <glyph glyph-name="uni0157" unicode="&#x157;" horiz-adv-x="398" 
d="M388 460l-22 -77q-34 20 -72 20q-45 0 -77 -38t-47 -102v-263h-88v365q0 21 -8 34.5t-29 29.5l59 52q35 -19 49.5 -41.5t16.5 -62.5q22 49 59 76.5t87 27.5q43 0 72 -21zM170 -82.5q16 -19.5 16 -52.5q0 -85 -84 -151l-28 27q51 38 58 84q-11 -6 -26 -6q-20 0 -31.5 13.5
t-11.5 36.5q0 25 18 46.5t45 21.5q28 0 44 -19.5z" />
    <glyph glyph-name="uni1E5B" unicode="&#x1e5b;" horiz-adv-x="398" 
d="M388 460l-22 -77q-34 20 -72 20q-45 0 -77 -38t-47 -102v-263h-88v365q0 21 -8 34.5t-29 29.5l59 52q35 -19 49.5 -41.5t16.5 -62.5q22 49 59 76.5t87 27.5q43 0 72 -21zM87 -156.5q-16 16.5 -16 39.5t16 39t39 16q22 0 38.5 -16.5t16.5 -38.5q0 -23 -16 -39.5t-39 -16.5
t-39 16.5z" />
    <glyph glyph-name="uni1E5D" unicode="&#x1e5d;" horiz-adv-x="398" 
d="M388 460l-22 -77q-34 20 -72 20q-45 0 -77 -38t-47 -102v-263h-88v365q0 21 -8 34.5t-29 29.5l59 52q35 -19 49.5 -41.5t16.5 -62.5q22 49 59 76.5t87 27.5q43 0 72 -21zM87 -156.5q-16 16.5 -16 39.5t16 39t39 16q22 0 38.5 -16.5t16.5 -38.5q0 -23 -16 -39.5t-39 -16.5
t-39 16.5zM45 626h307v-64h-307v64z" />
    <glyph glyph-name="uni1E5F" unicode="&#x1e5f;" horiz-adv-x="398" 
d="M388 460l-22 -77q-34 20 -72 20q-45 0 -77 -38t-47 -102v-263h-88v365q0 21 -8 34.5t-29 29.5l59 52q35 -19 49.5 -41.5t16.5 -62.5q22 49 59 76.5t87 27.5q43 0 72 -21zM-28 -78h307v-65h-307v65z" />
    <glyph glyph-name="s" unicode="s" horiz-adv-x="453" 
d="M112.5 8.5q-40.5 19.5 -74.5 63.5l56 48q29 -34 56.5 -48t68.5 -14q109 0 109 69q0 22 -11.5 35.5t-40 23t-85.5 19.5q-70 14 -105 48.5t-35 91.5q0 64 47 100t129 36q121 0 170 -77l-56 -47q-24 29 -50.5 42t-63.5 13q-44 0 -68 -18t-24 -50q0 -29 23 -44.5t73 -25.5
q66 -15 104 -31.5t57 -44t19 -72.5q0 -137 -192 -137q-66 0 -106.5 19.5z" />
    <glyph glyph-name="sacute" unicode="&#x15b;" horiz-adv-x="453" 
d="M112.5 8.5q-40.5 19.5 -74.5 63.5l56 48q29 -34 56.5 -48t68.5 -14q109 0 109 69q0 22 -11.5 35.5t-40 23t-85.5 19.5q-70 14 -105 48.5t-35 91.5q0 64 47 100t129 36q121 0 170 -77l-56 -47q-24 29 -50.5 42t-63.5 13q-44 0 -68 -18t-24 -50q0 -29 23 -44.5t73 -25.5
q66 -15 104 -31.5t57 -44t19 -72.5q0 -137 -192 -137q-66 0 -106.5 19.5zM266 693h95l-103 -149h-72z" />
    <glyph glyph-name="scaron" unicode="&#x161;" horiz-adv-x="453" 
d="M112.5 8.5q-40.5 19.5 -74.5 63.5l56 48q29 -34 56.5 -48t68.5 -14q109 0 109 69q0 22 -11.5 35.5t-40 23t-85.5 19.5q-70 14 -105 48.5t-35 91.5q0 64 47 100t129 36q121 0 170 -77l-56 -47q-24 29 -50.5 42t-63.5 13q-44 0 -68 -18t-24 -50q0 -29 23 -44.5t73 -25.5
q66 -15 104 -31.5t57 -44t19 -72.5q0 -137 -192 -137q-66 0 -106.5 19.5zM131 629.5q-37 44.5 -66 67.5h82q22 -18 45 -44t33 -46q9 19 32 45.5t45 44.5h81q-28 -22 -64.5 -66.5t-59.5 -86.5h-69q-22 41 -59 85.5z" />
    <glyph glyph-name="scedilla" unicode="&#x15f;" horiz-adv-x="453" 
d="M372 31q-39 -34 -115 -40l-10 -34q42 -3 63 -24t21 -57q0 -85 -120 -85q-56 0 -95 21l16 50q42 -17 70 -17q30 0 44.5 7.5t14.5 23.5q0 15 -12 24.5t-45 9.5q-8 0 -32 -2l20 82q-53 4 -88 23.5t-66 58.5l56 48q29 -34 56.5 -48t68.5 -14q109 0 109 69q0 22 -11.5 35.5
t-40 23t-85.5 19.5q-70 14 -105 48.5t-35 91.5q0 64 47 100t129 36q121 0 170 -77l-56 -47q-24 29 -50.5 42t-63.5 13q-44 0 -68 -18t-24 -50q0 -29 23 -44.5t73 -25.5q66 -15 104 -31.5t57 -44t19 -72.5q0 -61 -39 -95z" />
    <glyph glyph-name="scircumflex" unicode="&#x15d;" horiz-adv-x="453" 
d="M112.5 8.5q-40.5 19.5 -74.5 63.5l56 48q29 -34 56.5 -48t68.5 -14q109 0 109 69q0 22 -11.5 35.5t-40 23t-85.5 19.5q-70 14 -105 48.5t-35 91.5q0 64 47 100t129 36q121 0 170 -77l-56 -47q-24 29 -50.5 42t-63.5 13q-44 0 -68 -18t-24 -50q0 -29 23 -44.5t73 -25.5
q66 -15 104 -31.5t57 -44t19 -72.5q0 -137 -192 -137q-66 0 -106.5 19.5zM131 610.5q37 44.5 59 86.5h69q23 -43 59.5 -87t64.5 -66h-81q-22 17 -44.5 43t-32.5 45q-10 -19 -33.5 -45t-44.5 -43h-82q29 22 66 66.5z" />
    <glyph glyph-name="uni0219" unicode="&#x219;" horiz-adv-x="453" 
d="M112.5 8.5q-40.5 19.5 -74.5 63.5l56 48q29 -34 56.5 -48t68.5 -14q109 0 109 69q0 22 -11.5 35.5t-40 23t-85.5 19.5q-70 14 -105 48.5t-35 91.5q0 64 47 100t129 36q121 0 170 -77l-56 -47q-24 29 -50.5 42t-63.5 13q-44 0 -68 -18t-24 -50q0 -29 23 -44.5t73 -25.5
q66 -15 104 -31.5t57 -44t19 -72.5q0 -137 -192 -137q-66 0 -106.5 19.5zM270 -82.5q16 -19.5 16 -52.5q0 -85 -84 -151l-28 27q51 38 58 84q-11 -6 -26 -6q-20 0 -31.5 13.5t-11.5 36.5q0 25 18 46.5t45 21.5q28 0 44 -19.5z" />
    <glyph glyph-name="uni1E61" unicode="&#x1e61;" horiz-adv-x="453" 
d="M112.5 8.5q-40.5 19.5 -74.5 63.5l56 48q29 -34 56.5 -48t68.5 -14q109 0 109 69q0 22 -11.5 35.5t-40 23t-85.5 19.5q-70 14 -105 48.5t-35 91.5q0 64 47 100t129 36q121 0 170 -77l-56 -47q-24 29 -50.5 42t-63.5 13q-44 0 -68 -18t-24 -50q0 -29 23 -44.5t73 -25.5
q66 -15 104 -31.5t57 -44t19 -72.5q0 -137 -192 -137q-66 0 -106.5 19.5zM186 556.5q-16 16.5 -16 39.5t16 39.5t39 16.5q22 0 38.5 -16.5t16.5 -39.5t-16.5 -39.5t-38.5 -16.5q-23 0 -39 16.5z" />
    <glyph glyph-name="uni1E63" unicode="&#x1e63;" horiz-adv-x="453" 
d="M112.5 8.5q-40.5 19.5 -74.5 63.5l56 48q29 -34 56.5 -48t68.5 -14q109 0 109 69q0 22 -11.5 35.5t-40 23t-85.5 19.5q-70 14 -105 48.5t-35 91.5q0 64 47 100t129 36q121 0 170 -77l-56 -47q-24 29 -50.5 42t-63.5 13q-44 0 -68 -18t-24 -50q0 -29 23 -44.5t73 -25.5
q66 -15 104 -31.5t57 -44t19 -72.5q0 -137 -192 -137q-66 0 -106.5 19.5zM187 -156.5q-16 16.5 -16 39.5t16 39t39 16q22 0 38.5 -16.5t16.5 -38.5q0 -23 -16 -39.5t-39 -16.5t-39 16.5z" />
    <glyph glyph-name="germandbls" unicode="&#xdf;" horiz-adv-x="610" 
d="M531 338q27 -34 27 -81v-103q0 -81 -50 -123t-145 -42q-58 0 -109 20v73q42 -21 99 -21q56 0 86.5 25t30.5 73v98q0 44 -33.5 69.5t-89.5 25.5h-62v69h60q53 0 83.5 28t30.5 76q0 53 -35 82.5t-99 29.5q-74 0 -109.5 -40.5t-35.5 -123.5v-473h-88v473q0 119 56.5 176.5
t173.5 57.5q105 0 165 -47.5t60 -128.5q0 -50 -23.5 -86.5t-67.5 -55.5q48 -17 75 -51z" />
    <glyph glyph-name="t" unicode="t" horiz-adv-x="337" 
d="M165 401v-252q0 -43 17 -63.5t54 -20.5h64v-69h-64q-85 0 -122 36t-37 117v418q0 21 -8 34.5t-29 29.5l59 52q37 -20 51.5 -45.5t14.5 -70.5v-97h135v-69h-135z" />
    <glyph glyph-name="tbar" unicode="&#x167;" horiz-adv-x="370" 
d="M198 401v-109h107v-49h-107v-94q0 -43 17.5 -63.5t53.5 -20.5h65v-69h-65q-84 0 -121.5 36t-37.5 117v94h-77v49h77v275q0 21 -7.5 34.5t-28.5 29.5l59 52q37 -20 51 -45t14 -71v-97h136v-69h-136z" />
    <glyph glyph-name="tcaron" unicode="&#x165;" horiz-adv-x="361" 
d="M165 401v-252q0 -43 17 -63.5t54 -20.5h64v-69h-64q-85 0 -122 36t-37 117v418q0 21 -8 34.5t-29 29.5l59 52q37 -20 51.5 -45.5t14.5 -70.5v-97h135v-69h-135zM325.5 747q15.5 -19 15.5 -53q0 -88 -84 -155l-28 28q52 40 58 87q-11 -6 -26 -6q-20 0 -31 13.5t-11 37.5
q0 25 18 46t44 21q29 0 44.5 -19z" />
    <glyph glyph-name="uni0163" unicode="&#x163;" horiz-adv-x="337" 
d="M288 -67q21 -21 21 -57q0 -85 -120 -85q-56 0 -95 21l16 50q42 -17 70 -17q30 0 44.5 7.5t14.5 23.5q0 15 -12 24.5t-45 9.5q-8 0 -32 -2l23 94q-50 12 -73 47.5t-23 99.5v418q0 21 -8 34.5t-29 29.5l59 52q37 -20 51.5 -45.5t14.5 -70.5v-97h135v-69h-135v-252
q0 -43 17 -63.5t54 -20.5h64v-69h-63l-12 -39q42 -3 63 -24z" />
    <glyph glyph-name="uni021B" unicode="&#x21b;" horiz-adv-x="337" 
d="M165 401v-252q0 -43 17 -63.5t54 -20.5h64v-69h-64q-85 0 -122 36t-37 117v418q0 21 -8 34.5t-29 29.5l59 52q37 -20 51.5 -45.5t14.5 -70.5v-97h135v-69h-135zM248 -82.5q16 -19.5 16 -52.5q0 -85 -84 -151l-28 27q51 38 58 84q-11 -6 -26 -6q-20 0 -31.5 13.5
t-11.5 36.5q0 25 18 46.5t45 21.5q28 0 44 -19.5z" />
    <glyph glyph-name="uni1E97" unicode="&#x1e97;" horiz-adv-x="337" 
d="M165 401v-252q0 -43 17 -63.5t54 -20.5h64v-69h-64q-85 0 -122 36t-37 117v418q0 21 -8 34.5t-29 29.5l59 52q37 -20 51.5 -45.5t14.5 -70.5v-97h135v-69h-135zM-1.5 750q-14.5 15 -14.5 35t14.5 34.5t34.5 14.5q19 0 34 -14.5t15 -34.5t-14.5 -35t-34.5 -15t-34.5 15z
M166.5 750q-14.5 15 -14.5 35t14.5 34.5t35.5 14.5q19 0 34 -14.5t15 -34.5t-14.5 -35t-34.5 -15q-21 0 -35.5 15z" />
    <glyph glyph-name="uni1E6D" unicode="&#x1e6d;" horiz-adv-x="337" 
d="M165 401v-252q0 -43 17 -63.5t54 -20.5h64v-69h-64q-85 0 -122 36t-37 117v418q0 21 -8 34.5t-29 29.5l59 52q37 -20 51.5 -45.5t14.5 -70.5v-97h135v-69h-135zM165 -156.5q-16 16.5 -16 39.5t16 39t39 16q22 0 38.5 -16.5t16.5 -38.5q0 -23 -16 -39.5t-39 -16.5
t-39 16.5z" />
    <glyph glyph-name="uni1E6F" unicode="&#x1e6f;" horiz-adv-x="337" 
d="M165 401v-252q0 -43 17 -63.5t54 -20.5h64v-69h-64q-85 0 -122 36t-37 117v418q0 21 -8 34.5t-29 29.5l59 52q37 -20 51.5 -45.5t14.5 -70.5v-97h135v-69h-135zM50 -78h307v-65h-307v65z" />
    <glyph glyph-name="u" unicode="u" horiz-adv-x="554" 
d="M480 71.5q8 -13.5 29 -30.5l-59 -52q-32 18 -47 39t-18 54q-24 -44 -63.5 -68.5t-94.5 -24.5q-75 0 -116 42.5t-41 121.5v317h88v-310q0 -48 25 -75t69 -27q48 0 82 33.5t50 90.5v288h88v-364q0 -21 8 -34.5z" />
    <glyph glyph-name="uacute" unicode="&#xfa;" horiz-adv-x="554" 
d="M480 71.5q8 -13.5 29 -30.5l-59 -52q-32 18 -47 39t-18 54q-24 -44 -63.5 -68.5t-94.5 -24.5q-75 0 -116 42.5t-41 121.5v317h88v-310q0 -48 25 -75t69 -27q48 0 82 33.5t50 90.5v288h88v-364q0 -21 8 -34.5zM312 693h95l-103 -149h-72z" />
    <glyph glyph-name="ubreve" unicode="&#x16d;" horiz-adv-x="554" 
d="M480 71.5q8 -13.5 29 -30.5l-59 -52q-32 18 -47 39t-18 54q-24 -44 -63.5 -68.5t-94.5 -24.5q-75 0 -116 42.5t-41 121.5v317h88v-310q0 -48 25 -75t69 -27q48 0 82 33.5t50 90.5v288h88v-364q0 -21 8 -34.5zM159.5 578q-41.5 41 -41.5 109h64q3 -40 26 -63t63 -23
t63.5 23t25.5 63h64q0 -68 -41.5 -109t-111.5 -41t-111.5 41z" />
    <glyph glyph-name="uni01D4" unicode="&#x1d4;" horiz-adv-x="554" 
d="M480 71.5q8 -13.5 29 -30.5l-59 -52q-32 18 -47 39t-18 54q-24 -44 -63.5 -68.5t-94.5 -24.5q-75 0 -116 42.5t-41 121.5v317h88v-310q0 -48 25 -75t69 -27q48 0 82 33.5t50 90.5v288h88v-364q0 -21 8 -34.5zM177 629.5q-37 44.5 -66 67.5h82q22 -18 45 -44t33 -46
q9 19 32 45.5t45 44.5h81q-28 -22 -64.5 -66.5t-59.5 -86.5h-69q-22 41 -59 85.5z" />
    <glyph glyph-name="ucircumflex" unicode="&#xfb;" horiz-adv-x="554" 
d="M480 71.5q8 -13.5 29 -30.5l-59 -52q-32 18 -47 39t-18 54q-24 -44 -63.5 -68.5t-94.5 -24.5q-75 0 -116 42.5t-41 121.5v317h88v-310q0 -48 25 -75t69 -27q48 0 82 33.5t50 90.5v288h88v-364q0 -21 8 -34.5zM177 610.5q37 44.5 59 86.5h69q23 -43 59.5 -87t64.5 -66h-81
q-22 17 -44.5 43t-32.5 45q-10 -19 -33.5 -45t-44.5 -43h-82q29 22 66 66.5z" />
    <glyph glyph-name="udieresis" unicode="&#xfc;" horiz-adv-x="554" 
d="M480 71.5q8 -13.5 29 -30.5l-59 -52q-32 18 -47 39t-18 54q-24 -44 -63.5 -68.5t-94.5 -24.5q-75 0 -116 42.5t-41 121.5v317h88v-310q0 -48 25 -75t69 -27q48 0 82 33.5t50 90.5v288h88v-364q0 -21 8 -34.5zM152.5 555q-14.5 15 -14.5 35t14.5 34.5t34.5 14.5
q19 0 34 -14.5t15 -34.5t-14.5 -35t-34.5 -15t-34.5 15zM320.5 555q-14.5 15 -14.5 35t14.5 34.5t35.5 14.5q19 0 34 -14.5t15 -34.5t-14.5 -35t-34.5 -15q-21 0 -35.5 15z" />
    <glyph glyph-name="uni01D8" unicode="&#x1d8;" horiz-adv-x="554" 
d="M480 71.5q8 -13.5 29 -30.5l-59 -52q-32 18 -47 39t-18 54q-24 -44 -63.5 -68.5t-94.5 -24.5q-75 0 -116 42.5t-41 121.5v317h88v-310q0 -48 25 -75t69 -27q48 0 82 33.5t50 90.5v288h88v-364q0 -21 8 -34.5zM297 797h91l-86 -116h-68zM152.5 555q-14.5 15 -14.5 35
t14.5 34.5t34.5 14.5t34.5 -14.5t14.5 -34.5t-14.5 -35t-34.5 -15t-34.5 15zM320.5 555q-14.5 15 -14.5 35t14.5 34.5t35.5 14.5q20 0 34.5 -14.5t14.5 -34.5t-14.5 -35t-34.5 -15q-21 0 -35.5 15z" />
    <glyph glyph-name="uni01DA" unicode="&#x1da;" horiz-adv-x="554" 
d="M480 71.5q8 -13.5 29 -30.5l-59 -52q-32 18 -47 39t-18 54q-24 -44 -63.5 -68.5t-94.5 -24.5q-75 0 -116 42.5t-41 121.5v317h88v-310q0 -48 25 -75t69 -27q48 0 82 33.5t50 90.5v288h88v-364q0 -21 8 -34.5zM183 751.5q-34 35.5 -61 53.5h76q20 -12 41.5 -33.5
t31.5 -37.5q9 16 30.5 37t41.5 34h76q-26 -17 -60 -53t-56 -70h-65q-21 34 -55 69.5zM152.5 555q-14.5 15 -14.5 35t14.5 34.5t34.5 14.5t34.5 -14.5t14.5 -34.5t-14.5 -35t-34.5 -15t-34.5 15zM320.5 555q-14.5 15 -14.5 35t14.5 34.5t35.5 14.5q20 0 34.5 -14.5
t14.5 -34.5t-14.5 -35t-34.5 -15q-21 0 -35.5 15z" />
    <glyph glyph-name="uni01DC" unicode="&#x1dc;" horiz-adv-x="554" 
d="M480 71.5q8 -13.5 29 -30.5l-59 -52q-32 18 -47 39t-18 54q-24 -44 -63.5 -68.5t-94.5 -24.5q-75 0 -116 42.5t-41 121.5v317h88v-310q0 -48 25 -75t69 -27q48 0 82 33.5t50 90.5v288h88v-364q0 -21 8 -34.5zM150 797h92l63 -116h-69zM152.5 555q-14.5 15 -14.5 35
t14.5 34.5t34.5 14.5t34.5 -14.5t14.5 -34.5t-14.5 -35t-34.5 -15t-34.5 15zM320.5 555q-14.5 15 -14.5 35t14.5 34.5t35.5 14.5q20 0 34.5 -14.5t14.5 -34.5t-14.5 -35t-34.5 -15q-21 0 -35.5 15z" />
    <glyph glyph-name="uni01D6" unicode="&#x1d6;" horiz-adv-x="554" 
d="M480 71.5q8 -13.5 29 -30.5l-59 -52q-32 18 -47 39t-18 54q-24 -44 -63.5 -68.5t-94.5 -24.5q-75 0 -116 42.5t-41 121.5v317h88v-310q0 -48 25 -75t69 -27q48 0 82 33.5t50 90.5v288h88v-364q0 -21 8 -34.5zM117 758h307v-64h-307v64zM152.5 555q-14.5 15 -14.5 35
t14.5 34.5t34.5 14.5t34.5 -14.5t14.5 -34.5t-14.5 -35t-34.5 -15t-34.5 15zM320.5 555q-14.5 15 -14.5 35t14.5 34.5t35.5 14.5q20 0 34.5 -14.5t14.5 -34.5t-14.5 -35t-34.5 -15q-21 0 -35.5 15z" />
    <glyph glyph-name="uni1EE5" unicode="&#x1ee5;" horiz-adv-x="554" 
d="M480 71.5q8 -13.5 29 -30.5l-59 -52q-32 18 -47 39t-18 54q-24 -44 -63.5 -68.5t-94.5 -24.5q-75 0 -116 42.5t-41 121.5v317h88v-310q0 -48 25 -75t69 -27q48 0 82 33.5t50 90.5v288h88v-364q0 -21 8 -34.5zM225 -156.5q-16 16.5 -16 39.5t16 39t39 16q22 0 38.5 -16.5
t16.5 -38.5q0 -23 -16 -39.5t-39 -16.5t-39 16.5z" />
    <glyph glyph-name="ugrave" unicode="&#xf9;" horiz-adv-x="554" 
d="M480 71.5q8 -13.5 29 -30.5l-59 -52q-32 18 -47 39t-18 54q-24 -44 -63.5 -68.5t-94.5 -24.5q-75 0 -116 42.5t-41 121.5v317h88v-310q0 -48 25 -75t69 -27q48 0 82 33.5t50 90.5v288h88v-364q0 -21 8 -34.5zM131 693h95l81 -149h-73z" />
    <glyph glyph-name="uni1EE7" unicode="&#x1ee7;" horiz-adv-x="554" 
d="M480 71.5q8 -13.5 29 -30.5l-59 -52q-32 18 -47 39t-18 54q-24 -44 -63.5 -68.5t-94.5 -24.5q-75 0 -116 42.5t-41 121.5v317h88v-310q0 -48 25 -75t69 -27q48 0 82 33.5t50 90.5v288h88v-364q0 -21 8 -34.5zM300 581v-37h-67v70q44 4 62 14.5t18 29.5q0 20 -12 28t-35 8
q-26 0 -54 -10l-15 49q36 17 78 17q50 0 79.5 -21.5t29.5 -64.5q0 -65 -84 -83z" />
    <glyph glyph-name="uhorn" unicode="&#x1b0;" horiz-adv-x="582" 
d="M584.5 385q-34.5 -44 -112.5 -49v-230q0 -21 8 -34.5t29 -30.5l-59 -52q-32 18 -47 39t-18 54q-24 -44 -63.5 -68.5t-94.5 -24.5q-75 0 -116 42.5t-41 121.5v317h88v-310q0 -48 25 -75t69 -27q48 0 82 33.5t50 90.5v288h88v-85q39 6 53.5 39.5t14.5 98.5h81
q-2 -94 -36.5 -138z" />
    <glyph glyph-name="uni1EE9" unicode="&#x1ee9;" horiz-adv-x="582" 
d="M584.5 385q-34.5 -44 -112.5 -49v-230q0 -21 8 -34.5t29 -30.5l-59 -52q-32 18 -47 39t-18 54q-24 -44 -63.5 -68.5t-94.5 -24.5q-75 0 -116 42.5t-41 121.5v317h88v-310q0 -48 25 -75t69 -27q48 0 82 33.5t50 90.5v288h88v-85q39 6 53.5 39.5t14.5 98.5h81
q-2 -94 -36.5 -138zM312 693h95l-103 -149h-72z" />
    <glyph glyph-name="uni1EF1" unicode="&#x1ef1;" horiz-adv-x="582" 
d="M584.5 385q-34.5 -44 -112.5 -49v-230q0 -21 8 -34.5t29 -30.5l-59 -52q-32 18 -47 39t-18 54q-24 -44 -63.5 -68.5t-94.5 -24.5q-75 0 -116 42.5t-41 121.5v317h88v-310q0 -48 25 -75t69 -27q48 0 82 33.5t50 90.5v288h88v-85q39 6 53.5 39.5t14.5 98.5h81
q-2 -94 -36.5 -138zM225 -156.5q-16 16.5 -16 39.5t16 39t39 16q22 0 38.5 -16.5t16.5 -38.5q0 -23 -16 -39.5t-39 -16.5t-39 16.5z" />
    <glyph glyph-name="uni1EEB" unicode="&#x1eeb;" horiz-adv-x="582" 
d="M584.5 385q-34.5 -44 -112.5 -49v-230q0 -21 8 -34.5t29 -30.5l-59 -52q-32 18 -47 39t-18 54q-24 -44 -63.5 -68.5t-94.5 -24.5q-75 0 -116 42.5t-41 121.5v317h88v-310q0 -48 25 -75t69 -27q48 0 82 33.5t50 90.5v288h88v-85q39 6 53.5 39.5t14.5 98.5h81
q-2 -94 -36.5 -138zM131 693h95l81 -149h-73z" />
    <glyph glyph-name="uni1EED" unicode="&#x1eed;" horiz-adv-x="582" 
d="M584.5 385q-34.5 -44 -112.5 -49v-230q0 -21 8 -34.5t29 -30.5l-59 -52q-32 18 -47 39t-18 54q-24 -44 -63.5 -68.5t-94.5 -24.5q-75 0 -116 42.5t-41 121.5v317h88v-310q0 -48 25 -75t69 -27q48 0 82 33.5t50 90.5v288h88v-85q39 6 53.5 39.5t14.5 98.5h81
q-2 -94 -36.5 -138zM300 581v-37h-67v70q44 4 62 14.5t18 29.5q0 20 -12 28t-35 8q-26 0 -54 -10l-15 49q36 17 78 17q50 0 79.5 -21.5t29.5 -64.5q0 -65 -84 -83z" />
    <glyph glyph-name="uni1EEF" unicode="&#x1eef;" horiz-adv-x="582" 
d="M584.5 385q-34.5 -44 -112.5 -49v-230q0 -21 8 -34.5t29 -30.5l-59 -52q-32 18 -47 39t-18 54q-24 -44 -63.5 -68.5t-94.5 -24.5q-75 0 -116 42.5t-41 121.5v317h88v-310q0 -48 25 -75t69 -27q48 0 82 33.5t50 90.5v288h88v-85q39 6 53.5 39.5t14.5 98.5h81
q-2 -94 -36.5 -138zM138 632.5q25 33.5 73 33.5q20 0 37 -6.5t39 -18.5q18 -9 28.5 -13.5t21.5 -4.5q16 0 24 11.5t12 36.5h58q-3 -49 -27.5 -82.5t-66.5 -33.5q-21 0 -38 6.5t-38 18.5q-4 2 -14.5 7.5t-19 8t-16.5 2.5q-18 0 -27.5 -11.5t-14.5 -38.5h-58q2 51 27 84.5z
" />
    <glyph glyph-name="uhungarumlaut" unicode="&#x171;" horiz-adv-x="554" 
d="M480 71.5q8 -13.5 29 -30.5l-59 -52q-32 18 -47 39t-18 54q-24 -44 -63.5 -68.5t-94.5 -24.5q-75 0 -116 42.5t-41 121.5v317h88v-310q0 -48 25 -75t69 -27q48 0 82 33.5t50 90.5v288h88v-364q0 -21 8 -34.5zM219 693h83l-81 -149h-67zM384 693h83l-81 -149h-67z" />
    <glyph glyph-name="umacron" unicode="&#x16b;" horiz-adv-x="554" 
d="M480 71.5q8 -13.5 29 -30.5l-59 -52q-32 18 -47 39t-18 54q-24 -44 -63.5 -68.5t-94.5 -24.5q-75 0 -116 42.5t-41 121.5v317h88v-310q0 -48 25 -75t69 -27q48 0 82 33.5t50 90.5v288h88v-364q0 -21 8 -34.5zM117 626h307v-64h-307v64z" />
    <glyph glyph-name="uogonek" unicode="&#x173;" horiz-adv-x="554" 
d="M540 -189q-33 -22 -77 -22q-64 0 -91.5 29t-27.5 64q0 72 71 132q-14 14 -21 30t-9 38q-24 -44 -63.5 -68.5t-94.5 -24.5q-75 0 -116 42.5t-41 121.5v317h88v-310q0 -48 25 -75t69 -27q48 0 82 33.5t50 90.5v288h88v-364q0 -21 8 -34.5t29 -30.5l-44 -39
q-45 -58 -45 -107q0 -24 14 -35.5t37 -11.5q21 0 54 14z" />
    <glyph glyph-name="uring" unicode="&#x16f;" horiz-adv-x="554" 
d="M480 71.5q8 -13.5 29 -30.5l-59 -52q-32 18 -47 39t-18 54q-24 -44 -63.5 -68.5t-94.5 -24.5q-75 0 -116 42.5t-41 121.5v317h88v-310q0 -48 25 -75t69 -27q48 0 82 33.5t50 90.5v288h88v-364q0 -21 8 -34.5zM196.5 557q-27.5 26 -27.5 70q0 43 27.5 69t74.5 26t74.5 -26
t27.5 -69q0 -44 -27.5 -70t-74.5 -26t-74.5 26zM307 590.5q13 13.5 13 36.5t-13 36t-36 13t-36 -13t-13 -36t13 -36.5t36 -13.5t36 13.5z" />
    <glyph glyph-name="utilde" unicode="&#x169;" horiz-adv-x="554" 
d="M480 71.5q8 -13.5 29 -30.5l-59 -52q-32 18 -47 39t-18 54q-24 -44 -63.5 -68.5t-94.5 -24.5q-75 0 -116 42.5t-41 121.5v317h88v-310q0 -48 25 -75t69 -27q48 0 82 33.5t50 90.5v288h88v-364q0 -21 8 -34.5zM138 632.5q25 33.5 73 33.5q20 0 37 -6.5t39 -18.5
q18 -9 28.5 -13.5t21.5 -4.5q16 0 24 11.5t12 36.5h58q-3 -49 -27.5 -82.5t-66.5 -33.5q-21 0 -38 6.5t-38 18.5q-4 2 -14.5 7.5t-19 8t-16.5 2.5q-18 0 -27.5 -11.5t-14.5 -38.5h-58q2 51 27 84.5z" />
    <glyph glyph-name="v" unicode="v" horiz-adv-x="480" 
d="M173 13q-25 24 -43 83l-115 374h85l111 -368q8 -27 13.5 -35.5t15.5 -8.5t15.5 8.5t13.5 35.5l110 368h86l-114 -374q-18 -59 -42.5 -83t-67.5 -24t-68 24z" />
    <glyph glyph-name="w" unicode="w" horiz-adv-x="652" 
d="M22 470h80l86 -393q10 4 17 12t12 24l109 318l111 -318q8 -28 27 -34l88 391h78l-107 -470h-36q-43 0 -66.5 18t-37.5 63l-57 174l-56 -174q-15 -46 -38 -63.5t-67 -17.5h-36z" />
    <glyph glyph-name="wacute" unicode="&#x1e83;" horiz-adv-x="652" 
d="M22 470h80l86 -393q10 4 17 12t12 24l109 318l111 -318q8 -28 27 -34l88 391h78l-107 -470h-36q-43 0 -66.5 18t-37.5 63l-57 174l-56 -174q-15 -46 -38 -63.5t-67 -17.5h-36zM367 693h95l-103 -149h-72z" />
    <glyph glyph-name="wcircumflex" unicode="&#x175;" horiz-adv-x="652" 
d="M22 470h80l86 -393q10 4 17 12t12 24l109 318l111 -318q8 -28 27 -34l88 391h78l-107 -470h-36q-43 0 -66.5 18t-37.5 63l-57 174l-56 -174q-15 -46 -38 -63.5t-67 -17.5h-36zM232 610.5q37 44.5 59 86.5h69q23 -43 59.5 -87t64.5 -66h-81q-22 17 -44.5 43t-32.5 45
q-10 -19 -33.5 -45t-44.5 -43h-82q29 22 66 66.5z" />
    <glyph glyph-name="wdieresis" unicode="&#x1e85;" horiz-adv-x="652" 
d="M22 470h80l86 -393q10 4 17 12t12 24l109 318l111 -318q8 -28 27 -34l88 391h78l-107 -470h-36q-43 0 -66.5 18t-37.5 63l-57 174l-56 -174q-15 -46 -38 -63.5t-67 -17.5h-36zM207.5 555q-14.5 15 -14.5 35t14.5 34.5t34.5 14.5q19 0 34 -14.5t15 -34.5t-14.5 -35
t-34.5 -15t-34.5 15zM375.5 555q-14.5 15 -14.5 35t14.5 34.5t35.5 14.5q19 0 34 -14.5t15 -34.5t-14.5 -35t-34.5 -15q-21 0 -35.5 15z" />
    <glyph glyph-name="wgrave" unicode="&#x1e81;" horiz-adv-x="652" 
d="M22 470h80l86 -393q10 4 17 12t12 24l109 318l111 -318q8 -28 27 -34l88 391h78l-107 -470h-36q-43 0 -66.5 18t-37.5 63l-57 174l-56 -174q-15 -46 -38 -63.5t-67 -17.5h-36zM186 693h95l81 -149h-73z" />
    <glyph glyph-name="x" unicode="x" horiz-adv-x="446" 
d="M341 0l-120 177l-116 -177h-90l160 245l-152 225h89l115 -169l111 169h90l-154 -238l157 -232h-90z" />
    <glyph glyph-name="y" unicode="y" horiz-adv-x="544" 
d="M482 470v-526q0 -88 -47 -129.5t-147 -41.5h-124v68h124q54 0 80 25.5t26 78.5v129q-48 -85 -156 -85q-76 0 -118.5 43.5t-42.5 121.5v210q0 21 -8 34.5t-29 30.5l59 52q37 -20 51.5 -45.5t14.5 -71.5v-203q0 -49 25.5 -75.5t71.5 -26.5q54 0 90 37.5t42 93.5v280h88z
" />
    <glyph glyph-name="yacute" unicode="&#xfd;" horiz-adv-x="544" 
d="M482 470v-526q0 -88 -47 -129.5t-147 -41.5h-124v68h124q54 0 80 25.5t26 78.5v129q-48 -85 -156 -85q-76 0 -118.5 43.5t-42.5 121.5v210q0 21 -8 34.5t-29 30.5l59 52q37 -20 51.5 -45.5t14.5 -71.5v-203q0 -49 25.5 -75.5t71.5 -26.5q54 0 90 37.5t42 93.5v280h88z
M317 693h95l-103 -149h-72z" />
    <glyph glyph-name="ycircumflex" unicode="&#x177;" horiz-adv-x="544" 
d="M482 470v-526q0 -88 -47 -129.5t-147 -41.5h-124v68h124q54 0 80 25.5t26 78.5v129q-48 -85 -156 -85q-76 0 -118.5 43.5t-42.5 121.5v210q0 21 -8 34.5t-29 30.5l59 52q37 -20 51.5 -45.5t14.5 -71.5v-203q0 -49 25.5 -75.5t71.5 -26.5q54 0 90 37.5t42 93.5v280h88z
M182 610.5q37 44.5 59 86.5h69q23 -43 59.5 -87t64.5 -66h-81q-22 17 -44.5 43t-32.5 45q-10 -19 -33.5 -45t-44.5 -43h-82q29 22 66 66.5z" />
    <glyph glyph-name="ydieresis" unicode="&#xff;" horiz-adv-x="544" 
d="M482 470v-526q0 -88 -47 -129.5t-147 -41.5h-124v68h124q54 0 80 25.5t26 78.5v129q-48 -85 -156 -85q-76 0 -118.5 43.5t-42.5 121.5v210q0 21 -8 34.5t-29 30.5l59 52q37 -20 51.5 -45.5t14.5 -71.5v-203q0 -49 25.5 -75.5t71.5 -26.5q54 0 90 37.5t42 93.5v280h88z
M157.5 555q-14.5 15 -14.5 35t14.5 34.5t34.5 14.5q19 0 34 -14.5t15 -34.5t-14.5 -35t-34.5 -15t-34.5 15zM325.5 555q-14.5 15 -14.5 35t14.5 34.5t35.5 14.5q19 0 34 -14.5t15 -34.5t-14.5 -35t-34.5 -15q-21 0 -35.5 15z" />
    <glyph glyph-name="uni1E8F" unicode="&#x1e8f;" horiz-adv-x="544" 
d="M482 470v-526q0 -88 -47 -129.5t-147 -41.5h-124v68h124q54 0 80 25.5t26 78.5v129q-48 -85 -156 -85q-76 0 -118.5 43.5t-42.5 121.5v210q0 21 -8 34.5t-29 30.5l59 52q37 -20 51.5 -45.5t14.5 -71.5v-203q0 -49 25.5 -75.5t71.5 -26.5q54 0 90 37.5t42 93.5v280h88z
M237 556.5q-16 16.5 -16 39.5t16 39.5t39 16.5q22 0 38.5 -16.5t16.5 -39.5t-16.5 -39.5t-38.5 -16.5q-23 0 -39 16.5z" />
    <glyph glyph-name="uni1EF5" unicode="&#x1ef5;" horiz-adv-x="544" 
d="M482 470v-526q0 -88 -47 -129.5t-147 -41.5h-124v68h124q54 0 80 25.5t26 78.5v129q-48 -85 -156 -85q-76 0 -118.5 43.5t-42.5 121.5v210q0 21 -8 34.5t-29 30.5l59 52q37 -20 51.5 -45.5t14.5 -71.5v-203q0 -49 25.5 -75.5t71.5 -26.5q54 0 90 37.5t42 93.5v280h88z
M242 -384.5q-16 16.5 -16 39.5t16 39t39 16q22 0 38.5 -16.5t16.5 -38.5q0 -23 -16 -39.5t-39 -16.5t-39 16.5z" />
    <glyph glyph-name="ygrave" unicode="&#x1ef3;" horiz-adv-x="544" 
d="M482 470v-526q0 -88 -47 -129.5t-147 -41.5h-124v68h124q54 0 80 25.5t26 78.5v129q-48 -85 -156 -85q-76 0 -118.5 43.5t-42.5 121.5v210q0 21 -8 34.5t-29 30.5l59 52q37 -20 51.5 -45.5t14.5 -71.5v-203q0 -49 25.5 -75.5t71.5 -26.5q54 0 90 37.5t42 93.5v280h88z
M136 693h95l81 -149h-73z" />
    <glyph glyph-name="uni1EF7" unicode="&#x1ef7;" horiz-adv-x="544" 
d="M482 470v-526q0 -88 -47 -129.5t-147 -41.5h-124v68h124q54 0 80 25.5t26 78.5v129q-48 -85 -156 -85q-76 0 -118.5 43.5t-42.5 121.5v210q0 21 -8 34.5t-29 30.5l59 52q37 -20 51.5 -45.5t14.5 -71.5v-203q0 -49 25.5 -75.5t71.5 -26.5q54 0 90 37.5t42 93.5v280h88z
M305 581v-37h-67v70q44 4 62 14.5t18 29.5q0 20 -12 28t-35 8q-26 0 -54 -10l-15 49q36 17 78 17q50 0 79.5 -21.5t29.5 -64.5q0 -65 -84 -83z" />
    <glyph glyph-name="uni1EF9" unicode="&#x1ef9;" horiz-adv-x="544" 
d="M482 470v-526q0 -88 -47 -129.5t-147 -41.5h-124v68h124q54 0 80 25.5t26 78.5v129q-48 -85 -156 -85q-76 0 -118.5 43.5t-42.5 121.5v210q0 21 -8 34.5t-29 30.5l59 52q37 -20 51.5 -45.5t14.5 -71.5v-203q0 -49 25.5 -75.5t71.5 -26.5q54 0 90 37.5t42 93.5v280h88z
M143 632.5q25 33.5 73 33.5q20 0 37 -6.5t39 -18.5q18 -9 28.5 -13.5t21.5 -4.5q16 0 24 11.5t12 36.5h58q-3 -49 -27.5 -82.5t-66.5 -33.5q-21 0 -38 6.5t-38 18.5q-4 2 -14.5 7.5t-19 8t-16.5 2.5q-18 0 -27.5 -11.5t-14.5 -38.5h-58q2 51 27 84.5z" />
    <glyph glyph-name="z" unicode="z" horiz-adv-x="458" 
d="M428 69v-69h-300q-93 0 -93 71v37l281 293h-271v69h373v-67l-304 -315q5 -19 33 -19h281z" />
    <glyph glyph-name="zacute" unicode="&#x17a;" horiz-adv-x="458" 
d="M428 69v-69h-300q-93 0 -93 71v37l281 293h-271v69h373v-67l-304 -315q5 -19 33 -19h281zM275 693h95l-103 -149h-72z" />
    <glyph glyph-name="zcaron" unicode="&#x17e;" horiz-adv-x="458" 
d="M428 69v-69h-300q-93 0 -93 71v37l281 293h-271v69h373v-67l-304 -315q5 -19 33 -19h281zM140 629.5q-37 44.5 -66 67.5h82q22 -18 45 -44t33 -46q9 19 32 45.5t45 44.5h81q-28 -22 -64.5 -66.5t-59.5 -86.5h-69q-22 41 -59 85.5z" />
    <glyph glyph-name="zdotaccent" unicode="&#x17c;" horiz-adv-x="458" 
d="M428 69v-69h-300q-93 0 -93 71v37l281 293h-271v69h373v-67l-304 -315q5 -19 33 -19h281zM195 556.5q-16 16.5 -16 39.5t16 39.5t39 16.5q22 0 38.5 -16.5t16.5 -39.5t-16.5 -39.5t-38.5 -16.5q-23 0 -39 16.5z" />
    <glyph glyph-name="uni1E93" unicode="&#x1e93;" horiz-adv-x="458" 
d="M428 69v-69h-300q-93 0 -93 71v37l281 293h-271v69h373v-67l-304 -315q5 -19 33 -19h281zM195 -156.5q-16 16.5 -16 39.5t16 39t39 16q22 0 38.5 -16.5t16.5 -38.5q0 -23 -16 -39.5t-39 -16.5t-39 16.5z" />
    <glyph glyph-name="ordfeminine" unicode="&#xaa;" horiz-adv-x="428" 
d="M368.5 389.5q6.5 -10.5 22.5 -23.5l-46 -41q-40 20 -49 56q-19 -26 -51 -41t-73 -15q-58 0 -90 28t-32 79q0 99 139 113l53 5q25 3 36.5 8.5t14.5 16.5v2q0 35 -21 56t-66 21q-30 0 -52.5 -10.5t-40.5 -33.5l-47 35q40 59 141 59q77 0 116 -32.5t39 -94.5v-161
q0 -16 6.5 -26.5zM264 401q29 25 29 64v50q-14 -8 -53 -13l-46 -4q-77 -8 -77 -64q0 -28 18 -43t52 -15q48 0 77 25z" />
    <glyph glyph-name="ordmasculine" unicode="&#xba;" horiz-adv-x="424" 
d="M96 361.5q-41 36.5 -41 103.5v99q0 67 41 103.5t116 36.5t116 -36.5t41 -103.5v-99q0 -67 -41 -103.5t-116 -36.5t-116 36.5zM276.5 401.5q22.5 22.5 22.5 63.5v99q0 41 -22.5 63.5t-64.5 22.5t-65 -22.5t-23 -63.5v-99q0 -41 23 -63.5t65 -22.5t64.5 22.5z" />
    <glyph glyph-name="uni207F" unicode="&#x207f;" horiz-adv-x="493" 
d="M388 668q35 -37 35 -102v-282h-77v271q0 43 -20.5 66.5t-56.5 23.5q-41 0 -70.5 -28.5t-43.5 -77.5v-255h-78v316q0 21 -7 33t-25 25l52 47q27 -15 40 -32.5t16 -44.5q46 77 137 77q63 0 98 -37z" />
    <glyph glyph-name="uni0394" unicode="&#x394;" horiz-adv-x="667" 
d="M643 0h-619l263 700h93zM143 77h381l-191 516z" />
    <glyph glyph-name="uni0394" unicode="&#x3b4;" horiz-adv-x="667" 
d="M643 0h-619l263 700h93zM143 77h381l-191 516z" />
    <glyph glyph-name="uni03A9" unicode="&#x3a9;" horiz-adv-x="698" 
d="M651 75v-75h-243v82q63 14 99.5 58t36.5 112v198q0 87 -52 136.5t-143 49.5q-92 0 -144.5 -49.5t-52.5 -136.5v-198q0 -68 36.5 -112t100.5 -58v-82h-242v75h113q-103 61 -103 207v161q0 132 73.5 200t218.5 68q143 0 216.5 -68t73.5 -200v-161q0 -146 -103 -207h115z
" />
    <glyph glyph-name="uni03A9" unicode="&#x3c9;" horiz-adv-x="698" 
d="M651 75v-75h-243v82q63 14 99.5 58t36.5 112v198q0 87 -52 136.5t-143 49.5q-92 0 -144.5 -49.5t-52.5 -136.5v-198q0 -68 36.5 -112t100.5 -58v-82h-242v75h113q-103 61 -103 207v161q0 132 73.5 200t218.5 68q143 0 216.5 -68t73.5 -200v-161q0 -146 -103 -207h115z
" />
    <glyph glyph-name="uni03BC" unicode="&#x3bc;" horiz-adv-x="566" 
d="M492 72q8 -13 29 -31l-59 -51q-31 17 -46 37.5t-19 52.5q-22 -43 -57.5 -67t-83.5 -24q-51 0 -86 37v-254h-88v698h88v-309q0 -48 25 -75t69 -27q48 0 82 33.5t50 90.5v288h88v-365q0 -21 8 -34z" />
    <glyph glyph-name="pi" unicode="&#x3c0;" horiz-adv-x="657" 
d="M497 397v-269q0 -41 16 -54.5t64 -13.5l-20 -71q-58 0 -89.5 12.5t-45 41.5t-13.5 81v273h-198v-397h-88v397h-107v73h598v-73h-117z" />
    <glyph glyph-name="uni0E01" unicode="&#xe01;" horiz-adv-x="608" 
d="M70 229q0 118 94 157v4l-112 107v70h242q120 0 178.5 -60.5t58.5 -185.5v-321h-86v321q0 88 -39 132.5t-115 44.5l-112 -2l-51 -1l101 -94v-45q-37 -16 -55 -46.5t-18 -80.5v-229h-86v229z" />
    <glyph glyph-name="uni0E02" unicode="&#xe02;" horiz-adv-x="503" 
d="M424 560v-411q0 -79 -44 -119t-130 -40q-172 0 -172 165q0 42 10 74t40 90l10 20q-11 -4 -25 -4q-36 0 -58.5 27.5t-22.5 71.5q0 58 31.5 95.5t80.5 37.5q44 0 67 -29t23 -85q0 -37 -8.5 -69.5t-28.5 -76.5q-19 -43 -25.5 -74.5t-6.5 -72.5q0 -50 20.5 -74t64.5 -24
q43 0 65 22t22 65v411h87zM91.5 396q8.5 -14 23.5 -14q23 0 38.5 25.5t15.5 61.5q0 24 -8.5 37.5t-23.5 13.5q-23 0 -38.5 -25t-15.5 -62q0 -23 8.5 -37z" />
    <glyph glyph-name="uni0E03" unicode="&#xe03;" horiz-adv-x="540" 
d="M461 560v-416q0 -74 -45.5 -114t-130.5 -40q-83 0 -128.5 40t-45.5 115q0 45 15 79.5t58 92.5q29 40 40.5 62t11.5 42v15q0 18 -11 36t-29 31q4 -13 4 -32q0 -55 -29 -91t-72 -36q-36 0 -58 26t-22 69q0 54 32.5 91t81.5 37q61 0 110 -62v55h32q19 -74 19 -126
q0 -42 -9 -71.5t-36 -71.5q-32 -49 -41.5 -77t-9.5 -68q0 -44 21 -65.5t65 -21.5t67.5 22t23.5 63v416h86zM138 412q16 24 16 59q0 24 -9 38t-24 14q-22 0 -37.5 -24.5t-15.5 -59.5q0 -23 8.5 -37t23.5 -14q22 0 38 24z" />
    <glyph glyph-name="uni0E04" unicode="&#xe04;" horiz-adv-x="649" 
d="M505.5 518.5q65.5 -48.5 65.5 -133.5v-385h-86v385q0 53 -42 83t-118 30q-77 0 -119 -30t-42 -83v-120q33 37 76.5 59t90.5 22q46 0 73.5 -19.5t27.5 -52.5q0 -37 -35.5 -61t-89.5 -24q-39 0 -66 15t-33 41q-24 -23 -34 -53t-10 -76v-116h-85v385q0 85 65.5 133.5
t180.5 48.5t180.5 -48.5zM272.5 294q-25.5 -15 -25.5 -34q0 -16 16.5 -25.5t44.5 -9.5q35 0 58.5 14t23.5 34q0 16 -16 26t-43 10q-33 0 -58.5 -15z" />
    <glyph glyph-name="uni0E05" unicode="&#xe05;" horiz-adv-x="655" 
d="M528.5 512.5q48.5 -42.5 48.5 -101.5v-411h-86v400q0 39 -20 67.5t-55 41.5l-89 -86l-87 86q-37 -12 -56.5 -40.5t-19.5 -68.5v-135q33 37 76.5 59t90.5 22t74.5 -19t27.5 -53q0 -37 -35.5 -61t-89.5 -24q-39 0 -66 15t-33 41q-24 -23 -34.5 -53t-10.5 -76v-116h-85v411
q0 60 47.5 102t129.5 54l71 -80l73 80q80 -12 128.5 -54.5zM273.5 294q-25.5 -15 -25.5 -34q0 -16 16 -25.5t44 -9.5q35 0 59 14t24 34q0 16 -16.5 26t-42.5 10q-33 0 -58.5 -15z" />
    <glyph glyph-name="uni0E06" unicode="&#xe06;" horiz-adv-x="648" 
d="M569 560v-403q0 -83 -39.5 -125t-116.5 -42q-50 0 -94 23t-75 63q-2 -42 -24.5 -64t-60.5 -22q-31 0 -56 21t-39.5 55.5t-14.5 72.5q0 49 22.5 76.5t61.5 27.5q13 0 28 -5q2 24 15 46t38 48q24 27 34.5 49t10.5 45v10q0 18 -9 34.5t-24 29.5q3 -13 3 -28q0 -55 -29 -91.5
t-72 -36.5q-35 0 -57 25t-22 67q0 56 31.5 93.5t80.5 37.5q63 0 111 -61v54h32q11 -38 15.5 -64t4.5 -52q0 -38 -10.5 -67t-36.5 -67q-18 -27 -23.5 -45.5t-5.5 -48.5v-21q0 -27 22.5 -59t57.5 -54.5t68 -22.5q42 0 64 25.5t22 72.5v403h87zM167.5 412.5
q15.5 24.5 15.5 61.5q0 21 -9 35t-22 14q-24 0 -39.5 -24.5t-15.5 -62.5q0 -21 8.5 -34.5t22.5 -13.5q24 0 39.5 24.5zM185.5 49.5q8.5 12.5 8.5 39.5q0 44 -17.5 75.5t-43.5 31.5q-15 0 -24 -14.5t-9 -42.5q0 -40 17.5 -71t41.5 -31q18 0 26.5 12.5z" />
    <glyph glyph-name="uni0E07" unicode="&#xe07;" horiz-adv-x="489" 
d="M386.5 541q23.5 -26 23.5 -71v-331q0 -71 -36 -105t-110 -34h-83q-37 126 -74.5 216t-83.5 162l68 37q43 -62 78 -143t75 -209h12q70 0 70 76v198q-16 -9 -36 -9q-36 0 -58 27.5t-22 73.5q0 60 31.5 99t80.5 39q41 0 64.5 -26zM331 402.5q16 27.5 16 65.5q0 25 -8.5 39
t-23.5 14q-22 0 -38 -27t-16 -65q0 -24 9 -39t23 -15q22 0 38 27.5z" />
    <glyph glyph-name="uni0E08" unicode="&#xe08;" horiz-adv-x="546" 
d="M416 522q62 -45 62 -128v-259q0 -68 -36 -101.5t-109 -33.5h-95l-3 60q-3 75 -5 94q-13 -7 -32 -7q-43 0 -72.5 38.5t-29.5 92.5q0 43 21.5 67.5t58.5 24.5q43 0 73.5 -33.5t43.5 -95.5q14 -61 20 -178h11q70 0 70 72v259q0 50 -40.5 77t-115.5 27q-60 0 -104 -15.5
t-77 -49.5l-47 54q78 80 231 80q113 0 175 -45zM221.5 204.5q8.5 13.5 8.5 36.5q0 36 -15.5 60.5t-38.5 24.5q-14 0 -23 -12.5t-9 -34.5q0 -35 16.5 -61.5t38.5 -26.5q14 0 22.5 13.5z" />
    <glyph glyph-name="uni0E09" unicode="&#xe09;" horiz-adv-x="643" 
d="M591.5 205q23.5 -36 23.5 -88q0 -56 -26 -91.5t-68 -35.5q-34 0 -58 25t-32 68q-67 -93 -151 -93q-67 0 -102 39t-35 113v4q-17 -10 -35 -10q-36 0 -58 27.5t-22 72.5q0 58 32 96.5t81 38.5q40 0 63.5 -26t23.5 -71v-121q0 -46 19 -70t55 -24q41 0 81.5 37.5t56.5 85.5
q5 17 5 30v182q0 50 -41 77t-116 27q-60 0 -104 -16t-76 -49l-47 54q78 80 231 80q114 0 176 -45t62 -128v-149q38 -4 61.5 -40zM150.5 209.5q15.5 26.5 15.5 63.5q0 23 -8.5 37t-23.5 14q-23 0 -38.5 -26t-15.5 -63q0 -24 9 -38t24 -14q22 0 37.5 26.5zM551.5 59
q11.5 22 11.5 57q0 36 -11.5 59t-30.5 23t-30.5 -23t-11.5 -58q0 -36 11.5 -58t30.5 -22t30.5 22z" />
    <glyph glyph-name="uni0E0A" unicode="&#xe0a;" horiz-adv-x="513" 
d="M429.5 375.5q10.5 -24.5 10.5 -62.5v-164q0 -79 -44.5 -119t-130.5 -40q-89 0 -136.5 41t-47.5 120q0 40 10.5 69.5t48.5 98.5l10 20q-11 -4 -25 -4q-36 0 -58.5 27.5t-22.5 71.5q0 58 31.5 95.5t80.5 37.5q44 0 67 -29t23 -85q0 -38 -9 -73t-28 -72q-24 -49 -32.5 -82
t-8.5 -71q0 -45 25 -69t71 -24q44 0 66.5 22t22.5 65v155q0 42 -5.5 59t-24.5 37l-23 24v38q29 20 42 35.5t17.5 35.5t4.5 57h86q0 -54 -17 -84t-65 -58l27 -25q24 -23 34.5 -47.5zM103.5 396q8.5 -14 23.5 -14q23 0 38.5 25.5t15.5 61.5q0 24 -8.5 37.5t-23.5 13.5
q-23 0 -38.5 -25t-15.5 -62q0 -23 8.5 -37z" />
    <glyph glyph-name="uni0E0B" unicode="&#xe0b;" horiz-adv-x="541" 
d="M455.5 379q10.5 -24 10.5 -66v-169q0 -74 -46.5 -114t-131.5 -40t-131 40t-46 114q0 47 16.5 84.5t56.5 88.5q27 34 39.5 58.5t12.5 45.5v15q0 19 -11 36.5t-29 30.5q4 -15 4 -31q0 -55 -29 -91.5t-72 -36.5q-36 0 -58 25t-22 67q0 56 32 93.5t81 37.5q61 0 111 -62v55
h32q19 -74 19 -124q0 -42 -9.5 -73t-36.5 -72q-30 -44 -40 -74.5t-10 -72.5q0 -85 90 -85q44 0 67.5 22t23.5 63v160q0 43 -5.5 60t-22.5 36l-24 24v38q29 20 42 35.5t17.5 35.5t4.5 57h86q0 -55 -17 -84t-65 -57l28 -26q22 -20 32.5 -44zM138.5 412.5q15.5 24.5 15.5 61.5
q0 21 -9 35t-22 14q-24 0 -39.5 -24.5t-15.5 -62.5q0 -21 8.5 -34.5t22.5 -13.5q24 0 39.5 24.5z" />
    <glyph glyph-name="uni0E0C" unicode="&#xe0c;" horiz-adv-x="905" 
d="M826 560v-407q0 -163 -149 -163q-43 0 -80 19t-62 52q-6 -35 -27 -53t-55 -18q-46 0 -78 40t-32 98q0 48 23 75t62 27q8 0 20 -2v93q0 90 -37 133.5t-113 43.5l-126 -2l-45 -1l101 -94v-45q-39 -16 -57.5 -46t-18.5 -81v-9q17 9 35 9q37 0 59.5 -26.5t22.5 -70.5
q0 -63 -31.5 -102.5t-80.5 -39.5q-41 0 -65 26t-24 71v142q0 116 94 157v4l-110 107v70h246q119 0 177.5 -60.5t58.5 -185.5v-128q0 -27 19 -59t48.5 -53.5t58.5 -21.5q39 0 59 24t20 70v407h87zM487 88q0 40 -17 68t-42 28q-16 0 -25 -15t-9 -41q0 -37 17 -64t41 -27
q35 0 35 51zM146.5 154.5q-15.5 -27.5 -15.5 -69.5q0 -21 9 -34.5t22 -13.5q24 0 39.5 27t15.5 68q0 22 -8.5 36t-22.5 14q-24 0 -39.5 -27.5z" />
    <glyph glyph-name="uni0E0D" unicode="&#xe0d;" horiz-adv-x="892" 
d="M815 560v-318q0 -242 -251 -242h-116v321q0 90 -37.5 133.5t-114.5 43.5l-122 -2l-47 -1l101 -94v-45q-39 -16 -57.5 -46t-18.5 -81v-8q17 9 35 9q37 0 59.5 -27t22.5 -71q0 -62 -31.5 -102t-80.5 -40q-41 0 -65 26t-24 71v142q0 116 94 157v4l-110 107v70h244
q121 0 179.5 -60.5t58.5 -185.5v-252h30q86 0 125.5 41.5t39.5 131.5v318h86zM146.5 155.5q-15.5 -27.5 -15.5 -69.5q0 -21 9 -35t22 -14q24 0 39.5 27t15.5 68q0 22 -8.5 36.5t-22.5 14.5q-24 0 -39.5 -27.5zM707 -116q20 30 25 72h77q-24 -168 -231 -168q-59 0 -94.5 21
t-35.5 58q0 31 31 51.5t77 20.5q47 0 77.5 -20.5t30.5 -51.5q0 -13 -7 -26q30 13 50 43zM599 -156.5q18 9.5 18 23.5t-18 23.5t-43 9.5t-43 -9.5t-18 -23.5q0 -13 18.5 -23t42.5 -10q25 0 43 9.5z" />
    <glyph glyph-name="yoYingthai.less" horiz-adv-x="892" 
d="M815 560v-318q0 -242 -251 -242h-116v321q0 90 -37.5 133.5t-114.5 43.5l-122 -2l-47 -1l101 -94v-45q-39 -16 -57.5 -46t-18.5 -81v-8q17 9 35 9q37 0 59.5 -27t22.5 -71q0 -62 -31.5 -102t-80.5 -40q-41 0 -65 26t-24 71v142q0 116 94 157v4l-110 107v70h244
q121 0 179.5 -60.5t58.5 -185.5v-252h30q86 0 125.5 41.5t39.5 131.5v318h86zM146.5 155.5q-15.5 -27.5 -15.5 -69.5q0 -21 9 -35t22 -14q24 0 39.5 27t15.5 68q0 22 -8.5 36.5t-22.5 14.5q-24 0 -39.5 -27.5z" />
    <glyph glyph-name="uni0E0E" unicode="&#xe0e;" horiz-adv-x="643" 
d="M502.5 508.5q63.5 -58.5 63.5 -176.5v-593h-85q-57 54 -116 88q-25 -34 -60.5 -53t-78.5 -19q-52 0 -83.5 18t-31.5 57q0 38 33.5 58t81.5 20q55 0 116 -22q10 25 12 57h52q-3 -39 -19 -78q48 -25 93 -64v531q0 84 -41.5 125t-127.5 41q-92 0 -179 -3l104 -96v-312
q0 -45 -24 -71t-66 -26q-48 0 -79.5 40t-31.5 102q0 44 22 71t59 27q19 0 36 -9v181l-97 95v70h256q128 0 191.5 -58.5zM164 51q9 14 9 35q0 42 -15.5 69.5t-39.5 27.5q-14 0 -22.5 -14.5t-8.5 -36.5q0 -41 15.5 -68t39.5 -27q13 0 22 14zM281 -191q25 14 42 38
q-52 21 -97 21q-65 0 -65 -38q0 -16 16 -25.5t49 -9.5q30 0 55 14z" />
    <glyph glyph-name="doChadathai.short" horiz-adv-x="643" 
d="M502.5 508.5q63.5 -58.5 63.5 -176.5v-532h-85q-61 50 -116 80q-24 -34 -61 -53t-82 -19q-51 0 -81.5 19.5t-30.5 55.5t32 57t86 21t114 -22q9 26 12 57h51q-5 -44 -19 -78q44 -22 94 -59v473q0 85 -42.5 125.5t-132.5 40.5t-173 -3l104 -96v-304q0 -45 -23.5 -71
t-64.5 -26q-49 0 -81 39t-32 99q0 46 22 73.5t58 27.5q20 0 37 -9v174l-97 95v70h256q128 0 191.5 -58.5zM164.5 58.5q8.5 13.5 8.5 38.5q0 38 -16 66t-38 28q-15 0 -23.5 -14.5t-8.5 -39.5q0 -38 15.5 -65t37.5 -27q16 0 24.5 13.5zM322 -100q-49 21 -97 21
q-32 0 -48.5 -10t-16.5 -28q0 -17 16 -26t46 -9q63 0 100 52z" />
    <glyph glyph-name="uni0E0F" unicode="&#xe0f;" horiz-adv-x="643" 
d="M404 -163l-74 -99q-33 43 -63 68q-48 -51 -117 -51q-47 0 -74.5 20.5t-27.5 57.5q0 36 29.5 55.5t72.5 19.5q30 0 55.5 -9t50.5 -27q16 30 18 74h51q-3 -59 -32 -104q18 -17 35 -39l76 103l76 -101v527q0 84 -41.5 125t-127.5 41l-118 -2l-60 -1l103 -96v-312
q0 -45 -24 -71t-66 -26q-48 0 -79.5 40t-31.5 102q0 44 22 71t59 27q18 0 36 -16v188l-97 95v70h256q128 0 191.5 -58.5t63.5 -176.5v-593h-88zM164 51q9 14 9 35q0 42 -15.5 69.5t-39.5 27.5q-14 0 -22.5 -14.5t-8.5 -36.5q0 -41 15.5 -68t39.5 -27q13 0 22 14zM231 -164
q-40 32 -81 32q-27 0 -41.5 -9.5t-14.5 -25.5q0 -17 14.5 -27t41.5 -10q49 0 81 40z" />
    <glyph glyph-name="toPatakthai.short" horiz-adv-x="643" 
d="M502.5 508.5q63.5 -58.5 63.5 -176.5v-542h-88l-69 85l-65 -85q-30 39 -62 68q-46 -51 -115 -51q-47 0 -74 20.5t-27 57.5q0 34 27.5 54t73.5 20q55 0 104 -36q12 24 17 58h49q-8 -52 -29 -87q20 -20 35 -39l65 87l72 -90v480q0 84 -41.5 125t-127.5 41l-179 -3l104 -96
v-304q0 -46 -24 -71.5t-66 -25.5q-48 0 -79.5 40t-31.5 102q0 44 22 70.5t59 26.5q19 0 36 -9v174l-97 95v70h256q128 0 191.5 -58.5zM164 59q9 14 9 34q0 42 -15.5 70t-39.5 28q-14 0 -22.5 -14.5t-8.5 -36.5q0 -41 15.5 -68t39.5 -27q13 0 22 14zM247 -113q-39 33 -80 33
q-26 0 -40 -9t-14 -26t14 -27t40 -10q49 0 80 39z" />
    <glyph glyph-name="uni0E10" unicode="&#xe10;" horiz-adv-x="542" 
d="M71.5 395q-47.5 23 -47.5 61q0 32 27 57t77 39.5t117 14.5q129 0 247 -49l-20 -66q-44 20 -110.5 35.5t-121.5 15.5q-59 0 -94.5 -11.5t-35.5 -29.5q0 -13 21.5 -21t70.5 -19l51 -13q78 -20 122.5 -39.5t64.5 -45t20 -64.5v-125q0 -68 -36 -101.5t-109 -33.5h-95l-3 51
l-4 52q-14 -7 -33 -7q-43 0 -71.5 34t-28.5 87q0 42 22 67t59 25q42 0 70.5 -30.5t42.5 -88.5q13 -58 19 -127h13q70 0 70 72v118q0 32 -34 52.5t-117 41.5q-106 25 -153.5 48zM204 153q9 13 9 35q0 32 -15 54.5t-37 22.5q-16 0 -24 -12.5t-8 -34.5q0 -32 15 -55t37 -23
q14 0 23 13zM446.5 -50q26.5 -18 26.5 -47v-162h-62l-82 48l-58 -48q-35 28 -60 45q-45 -45 -101 -45q-38 0 -59.5 17t-21.5 48q0 29 22.5 46t60.5 17q41 0 87 -28q9 20 11 58h44q-3 -45 -22 -80q12 -8 41 -30l54 46l92 -52v74q-18 -6 -42 -6q-39 0 -63.5 16t-24.5 42
t24 42.5t64 16.5q43 0 69.5 -18zM412 -108.5q15 7.5 15 17.5t-15 17.5t-35 7.5q-21 0 -35 -7t-14 -18t13.5 -18t34.5 -7t36 7.5zM179 -192q-34 27 -67 27q-21 0 -32 -7.5t-11 -21.5t11.5 -22t31.5 -8q37 0 67 32z" />
    <glyph glyph-name="thoThanthai.less" horiz-adv-x="542" 
d="M145 491.5q-35 -11.5 -35 -30.5q0 -12 23 -20.5t78 -21.5l42 -10q78 -19 122.5 -38.5t64.5 -45.5t20 -65v-125q0 -68 -36 -101.5t-109 -33.5h-95l-3 51l-4 52q-14 -7 -33 -7q-43 0 -71.5 34t-28.5 87q0 42 22 67t59 25q42 0 70.5 -30.5t42.5 -88.5q13 -58 19 -127h13
q70 0 70 72v118q0 32 -34 52.5t-117 41.5q-106 25 -153.5 48t-47.5 60q0 32 27 57.5t77 40t117 14.5q129 0 247 -49l-20 -66q-44 20 -110.5 35.5t-121.5 15.5q-60 0 -95 -11.5zM204 153q9 13 9 35q0 32 -15 54.5t-37 22.5q-16 0 -24 -12.5t-8 -34.5q0 -32 15 -55t37 -23
q14 0 23 13z" />
    <glyph glyph-name="uni0E11" unicode="&#xe11;" horiz-adv-x="680" 
d="M568.5 526.5q33.5 -40.5 33.5 -123.5v-403h-87v403q0 95 -65 95q-52 0 -104 -53.5t-92 -141.5q-12 -29 -16.5 -52t-4.5 -54v-197h-87v197q0 37 12.5 68.5t34.5 69.5q17 30 24.5 48.5t7.5 36.5v15q0 34 -33 62q3 -13 3 -27q0 -54 -29 -90t-72 -36q-37 0 -58.5 25.5
t-21.5 69.5q0 54 31 91t78 37q65 0 115 -67v60h31q20 -67 20 -105q32 55 77 83.5t101 28.5q68 0 101.5 -40.5zM132.5 412.5q15.5 24.5 15.5 58.5q0 24 -8.5 38t-24.5 14q-22 0 -37.5 -24.5t-15.5 -59.5q0 -24 9 -37.5t23 -13.5q23 0 38.5 24.5z" />
    <glyph glyph-name="uni0E12" unicode="&#xe12;" horiz-adv-x="940" 
d="M862 560v-407q0 -80 -37 -121.5t-109 -41.5q-82 0 -136 60q-17 -60 -78 -60q-47 0 -79 39.5t-32 98.5q0 47 23 74t63 27h8v171q0 39 -19 67.5t-54 41.5l-89 -86l-87 86q-35 -13 -54 -41t-19 -68v-337q47 10 85.5 40.5t56.5 73.5q-5 -1 -15 -1q-33 0 -52 23t-19 61
q0 50 26.5 85t66.5 35q35 0 52.5 -25t17.5 -71q0 -70 -31 -131t-84.5 -100.5t-118.5 -46.5h-69v405q0 60 46.5 102t126.5 54l71 -80l73 80q79 -12 126 -54.5t47 -101.5v-218q0 -28 19.5 -59.5t50 -53t60.5 -21.5q37 0 56.5 24.5t19.5 69.5v407h87zM268 224.5
q8 -12.5 22 -12.5q22 0 36 24t14 59q0 23 -8 36t-22 13q-21 0 -35.5 -24.5t-14.5 -59.5q0 -23 8 -35.5zM526 50.5q9 13.5 9 38.5q0 38 -17 65.5t-41 27.5q-16 0 -25 -14.5t-9 -39.5q0 -38 16.5 -64.5t41.5 -26.5q16 0 25 13.5z" />
    <glyph glyph-name="uni0E13" unicode="&#xe13;" horiz-adv-x="924" 
d="M872.5 204.5q23.5 -35.5 23.5 -86.5q0 -57 -26 -92.5t-68 -35.5q-34 0 -58 24.5t-32 66.5q-64 -91 -144 -91q-69 0 -102 40.5t-33 122.5v168q0 91 -34.5 134t-106.5 43l-118 -2l-47 -1l101 -94v-45q-39 -16 -57.5 -46t-18.5 -81v-8q17 9 35 9q37 0 59.5 -27t22.5 -71
q0 -62 -31.5 -102t-80.5 -40q-41 0 -65 26t-24 71v142q0 116 94 157v4l-110 107v70h240q115 0 171 -61t56 -185v-168q0 -94 68 -94q31 0 63.5 25.5t54 61.5t21.5 66v348h86v-316q37 -4 60.5 -39.5zM832.5 59q11.5 22 11.5 59q0 35 -11.5 57.5t-30.5 22.5t-30.5 -22.5
t-11.5 -57.5q0 -36 11.5 -58.5t30.5 -22.5t30.5 22zM146.5 155.5q-15.5 -27.5 -15.5 -69.5q0 -21 9 -35t22 -14q24 0 39.5 27t15.5 68q0 22 -8.5 36.5t-22.5 14.5q-24 0 -39.5 -27.5z" />
    <glyph glyph-name="uni0E14" unicode="&#xe14;" horiz-adv-x="642" 
d="M498.5 518.5q64.5 -48.5 64.5 -133.5v-385h-84v385q0 53 -41.5 83t-116.5 30t-116.5 -30t-41.5 -83v-323q44 7 82 33q35 25 55 57h-3q-35 0 -54 25.5t-19 65.5q0 51 28.5 91.5t69.5 40.5q38 0 57.5 -27t19.5 -73q0 -62 -28.5 -119.5t-77.5 -95.5q-30 -25 -72 -41.5
t-73 -17.5h-69v384q0 85 64.5 133.5t177.5 48.5t177.5 -48.5zM277.5 207q8.5 -14 23.5 -14q22 0 38 26.5t16 63.5q0 23 -9 37t-24 14q-22 0 -37.5 -26t-15.5 -64q0 -23 8.5 -37z" />
    <glyph glyph-name="uni0E15" unicode="&#xe15;" horiz-adv-x="648" 
d="M522 512.5q47 -42.5 47 -101.5v-411h-84v400q0 39 -19.5 67.5t-53.5 41.5l-89 -86l-87 86q-35 -13 -54 -41t-19 -68v-338q43 8 79.5 32t56.5 58h-2q-35 0 -54 25.5t-19 66.5q0 52 27.5 91.5t70.5 39.5q37 0 57 -27t20 -74q0 -68 -33 -127.5t-90 -98.5t-128 -48h-69v411
q0 60 46.5 102t126.5 54l71 -80l73 80q79 -12 126 -54.5zM277.5 207q8.5 -14 23.5 -14q22 0 38 26.5t16 63.5q0 23 -9 37t-24 14q-22 0 -37.5 -26t-15.5 -64q0 -23 8.5 -37z" />
    <glyph glyph-name="uni0E16" unicode="&#xe16;" horiz-adv-x="616" 
d="M479.5 506.5q59.5 -60.5 59.5 -185.5v-321h-86v321q0 89 -38 133t-117 44l-126 -2l-45 -1l101 -94v-45q-39 -16 -57.5 -46t-18.5 -81v-8q17 9 36 9q37 0 59 -27.5t22 -73.5q0 -61 -32 -100t-81 -39q-41 0 -64.5 26t-23.5 71v142q0 116 94 157v4l-110 107v70h246
q122 0 181.5 -60.5zM147 155q-16 -28 -16 -66q0 -24 8.5 -38t24.5 -14q22 0 37.5 27t15.5 65q0 25 -8.5 39.5t-23.5 14.5q-22 0 -38 -28z" />
    <glyph glyph-name="uni0E17" unicode="&#xe17;" horiz-adv-x="667" 
d="M554 524.5q35 -42.5 35 -117.5v-407h-87v407q0 44 -15.5 67.5t-44.5 23.5q-52 0 -104.5 -66.5t-95.5 -185.5q-11 -31 -15.5 -52.5t-4.5 -47.5v-146h-87v338q-17 -10 -34 -10q-36 0 -58 27.5t-22 73.5q0 60 32 99t80 39q41 0 65 -26t24 -71v-142q49 126 104.5 182.5
t130.5 56.5q62 0 97 -42.5zM142.5 402q15.5 27 15.5 66q0 25 -8.5 39t-23.5 14q-22 0 -38 -27.5t-16 -64.5q0 -25 9 -39.5t24 -14.5q22 0 37.5 27z" />
    <glyph glyph-name="uni0E18" unicode="&#xe18;" horiz-adv-x="562" 
d="M138.5 21q-50.5 31 -50.5 92v185h87v-183q0 -26 30 -41t82 -15q53 0 83 15t30 41v128q0 18 -10 30t-44 26t-105 34q-76 21 -114 36t-55 33.5t-17 46.5q0 54 61.5 86t164.5 32q55 0 115.5 -11t114.5 -31l-20 -65q-43 17 -105 29t-112 12q-58 0 -95.5 -13.5t-37.5 -32.5
q0 -15 19.5 -24t82.5 -28l25 -7q97 -29 143.5 -50t61 -41.5t14.5 -52.5v-139q0 -60 -51 -91.5t-149 -31.5t-148.5 31z" />
    <glyph glyph-name="uni0E19" unicode="&#xe19;" horiz-adv-x="651" 
d="M599.5 204q23.5 -36 23.5 -88q0 -55 -26 -90.5t-68 -35.5q-35 0 -59 25.5t-31 68.5q-34 -44 -76.5 -69t-91.5 -25q-140 0 -140 163v185q-17 -10 -35 -10q-36 0 -57.5 27.5t-21.5 73.5q0 59 32 98.5t80 39.5q41 0 65 -26t24 -71v-317q0 -46 19.5 -70t56.5 -24q35 0 72 25
t61.5 60.5t24.5 64.5v351h87v-316q37 -4 60.5 -40zM138.5 401.5q15.5 27.5 15.5 66.5q0 24 -8.5 38t-23.5 14q-22 0 -38 -27t-16 -65q0 -25 9 -39.5t24 -14.5q22 0 37.5 27.5zM560 59.5q12 22.5 12 58.5q0 35 -12 57.5t-31 22.5t-30.5 -22.5t-11.5 -57.5q0 -36 11.5 -58.5
t30.5 -22.5t31 22.5z" />
    <glyph glyph-name="uni0E1A" unicode="&#xe1a;" horiz-adv-x="650" 
d="M571 560v-422q0 -73 -56.5 -110.5t-163.5 -37.5t-163.5 37.5t-56.5 110.5v198q-18 -8 -34 -8q-37 0 -58.5 27.5t-21.5 73.5q0 59 32 98.5t80 39.5q41 0 65 -26t24 -71v-330q0 -39 34.5 -60t98.5 -21t98.5 21t34.5 60v420h87zM138.5 401.5q15.5 27.5 15.5 66.5
q0 24 -8.5 38t-23.5 14q-22 0 -38 -27t-16 -65q0 -25 9 -39.5t24 -14.5q22 0 37.5 27.5z" />
    <glyph glyph-name="uni0E1B" unicode="&#xe1b;" horiz-adv-x="650" 
d="M571 816v-678q0 -73 -56.5 -110.5t-163.5 -37.5t-163.5 37.5t-56.5 110.5v198q-18 -8 -34 -8q-37 0 -58.5 27.5t-21.5 73.5q0 59 32 98.5t80 39.5q41 0 65 -26t24 -71v-330q0 -39 34.5 -60t98.5 -21t98.5 21t34.5 60v676h87zM138.5 401.5q15.5 27.5 15.5 66.5
q0 24 -8.5 38t-23.5 14q-22 0 -38 -27t-16 -65q0 -25 9 -39.5t24 -14.5q22 0 37.5 27.5z" />
    <glyph glyph-name="uni0E1C" unicode="&#xe1c;" horiz-adv-x="668" 
d="M586 560v-560h-81q-53 30 -94.5 72t-77.5 104q-36 -62 -77.5 -104t-94.5 -72h-82v405q0 75 30.5 118.5t82.5 43.5q39 0 61 -27t22 -72q0 -59 -31 -99.5t-77 -40.5h-4v-250q51 31 96 88t74 127q30 -70 74 -126.5t95 -87.5v481h84zM153 494q-16 -27 -16 -65q0 -25 9 -39.5
t24 -14.5q22 0 37.5 27.5t15.5 65.5q0 25 -8.5 39t-23.5 14q-22 0 -38 -27z" />
    <glyph glyph-name="uni0E1D" unicode="&#xe1d;" horiz-adv-x="668" 
d="M586 815v-815h-81q-53 30 -94.5 72t-77.5 104q-36 -62 -77.5 -104t-94.5 -72h-82v405q0 75 30.5 118.5t82.5 43.5q39 0 61 -27t22 -72q0 -59 -31 -99.5t-77 -40.5h-4v-250q51 31 96 88t74 127q30 -70 74 -126.5t95 -87.5v736h84zM153 494q-16 -27 -16 -65q0 -25 9 -39.5
t24 -14.5q22 0 37.5 27.5t15.5 65.5q0 25 -8.5 39t-23.5 14q-22 0 -38 -27z" />
    <glyph glyph-name="uni0E1E" unicode="&#xe1e;" horiz-adv-x="698" 
d="M617 560v-560h-98q-38 39 -80 123t-70 170q-27 -87 -67.5 -171t-76.5 -122h-97v328h-2q-45 0 -75.5 40t-30.5 98q0 48 23 74.5t64 26.5q47 0 77.5 -41.5t30.5 -105.5v-322q37 53 78 154.5t75 219.5q28 -100 74.5 -209.5t87.5 -167.5v465h87zM87 403q16 -28 39 -28
q15 0 23 13.5t8 36.5q0 39 -16.5 67.5t-38.5 28.5q-15 0 -23 -13.5t-8 -36.5q0 -40 16 -68z" />
    <glyph glyph-name="uni0E1F" unicode="&#xe1f;" horiz-adv-x="698" 
d="M617 815v-815h-98q-38 39 -80 123t-70 170q-27 -87 -67.5 -171t-76.5 -122h-97v328h-2q-45 0 -75.5 40t-30.5 98q0 48 23 74.5t64 26.5q47 0 77.5 -41.5t30.5 -105.5v-322q37 53 78.5 155.5t74.5 218.5q28 -100 74.5 -209.5t87.5 -167.5v720h87zM87 403q16 -28 39 -28
q15 0 23 13.5t8 36.5q0 39 -16.5 67.5t-38.5 28.5q-15 0 -23 -13.5t-8 -36.5q0 -40 16 -68z" />
    <glyph glyph-name="uni0E20" unicode="&#xe20;" horiz-adv-x="643" 
d="M502.5 508.5q63.5 -58.5 63.5 -176.5v-332h-86v332q0 84 -41.5 125t-127.5 41q-91 0 -179 -3l104 -96v-312q0 -44 -24.5 -70.5t-65.5 -26.5q-48 0 -79.5 40.5t-31.5 101.5q0 46 21.5 72t59.5 26q19 0 36 -9v182l-97 94v70h256q128 0 191.5 -58.5zM164.5 50q8.5 13 8.5 36
q0 39 -16.5 68t-38.5 29q-15 0 -23 -13.5t-8 -37.5q0 -40 16 -67.5t39 -27.5q14 0 22.5 13z" />
    <glyph glyph-name="uni0E21" unicode="&#xe21;" horiz-adv-x="648" 
d="M569 560v-403q0 -82 -39 -124.5t-114 -42.5q-51 0 -95.5 23t-75.5 64v-4q-4 -40 -25.5 -61.5t-57.5 -21.5q-32 0 -57.5 21t-40 55.5t-14.5 73.5q0 48 22.5 75.5t61.5 27.5q14 0 29 -5v103q-14 -16 -33 -16q-36 0 -57.5 28t-21.5 74q0 61 31.5 100.5t79.5 39.5
q40 0 63.5 -26.5t23.5 -71.5v-274q0 -27 22.5 -59.5t57.5 -54.5t69 -22q40 0 62 25.5t22 72.5v403h87zM172 401q16 28 16 66q0 24 -8.5 38t-23.5 14q-22 0 -38 -27t-16 -65q0 -25 9 -39.5t23 -14.5q22 0 38 28zM196 90q0 43 -18 74.5t-43 31.5q-16 0 -25 -14.5t-9 -41.5
q0 -41 18 -72t43 -31q34 0 34 53z" />
    <glyph glyph-name="uni0E22" unicode="&#xe22;" horiz-adv-x="631" 
d="M550 560v-560h-322q-72 0 -117 40t-45 107q0 44 24 77.5t62 49.5q-42 19 -70.5 57t-28.5 87q0 68 43 108.5t119 40.5q43 0 80 -17t58.5 -46.5t21.5 -64.5q0 -34 -22.5 -54t-60.5 -20q-34 0 -64 16.5t-49.5 43.5t-22.5 56q-18 -21 -18 -61q0 -47 32 -81t78 -34h119v-64
h-116q-45 0 -72.5 -24.5t-27.5 -62.5q0 -39 27 -62t73 -23h213v491h86zM210 513q-9 -8 -9 -22q0 -18 14 -37.5t35 -32.5t41 -13q16 0 25.5 8.5t9.5 22.5q0 18 -14.5 37t-36 32t-41.5 13q-15 0 -24 -8z" />
    <glyph glyph-name="uni0E23" unicode="&#xe23;" horiz-adv-x="522" 
d="M146.5 488.5q-35.5 -12.5 -35.5 -32.5q0 -15 28.5 -27t104.5 -35q75 -23 116 -41.5t61.5 -43t20.5 -59.5v-116q0 -66 -42 -105t-118 -39q-48 0 -88 17.5t-63 48t-23 66.5q0 34 22.5 54.5t60.5 20.5q34 0 66 -19.5t52 -50t20 -61.5v-8q26 20 26 82v98q0 20 -13 34t-43 28
t-86 32q-67 21 -105 36t-60.5 35t-22.5 48q0 32 27 58.5t77.5 42t117.5 15.5q127 0 246 -49l-20 -66q-43 19 -109.5 34t-122.5 15q-59 0 -94.5 -12.5zM272 48q9 8 9 22q0 19 -14 38.5t-35 32.5t-41 13q-16 0 -25.5 -9t-9.5 -23q0 -18 14.5 -37t36.5 -32t42 -13q14 0 23 8z
" />
    <glyph glyph-name="uni0E24" unicode="&#xe24;" horiz-adv-x="616" 
d="M479.5 506.5q59.5 -60.5 59.5 -185.5v-571h-86v571q0 89 -38 133t-117 44l-126 -2l-45 -1l101 -94v-45q-39 -16 -57.5 -46t-18.5 -81v-8q17 9 35 9q37 0 59.5 -27t22.5 -71q0 -62 -31.5 -102t-80.5 -40q-41 0 -65 26t-24 71v142q0 116 94 157v4l-110 107v70h246
q122 0 181.5 -60.5zM146.5 155.5q-15.5 -27.5 -15.5 -69.5q0 -21 9 -35t22 -14q24 0 39.5 27t15.5 68q0 22 -8.5 36.5t-22.5 14.5q-24 0 -39.5 -27.5z" />
    <glyph glyph-name="uni0E24.short" horiz-adv-x="616" 
d="M479.5 506.5q59.5 -60.5 59.5 -185.5v-481h-86v481q0 89 -38 133t-117 44l-126 -2l-45 -1l101 -94v-45q-39 -16 -57.5 -46t-18.5 -81v-8q17 9 35 9q37 0 59.5 -27t22.5 -71q0 -62 -31.5 -102t-80.5 -40q-41 0 -65 26t-24 71v142q0 116 94 157v4l-110 107v70h246
q122 0 181.5 -60.5zM146.5 155.5q-15.5 -27.5 -15.5 -69.5q0 -21 9 -35t22 -14q24 0 39.5 27t15.5 68q0 22 -8.5 36.5t-22.5 14.5q-24 0 -39.5 -27.5z" />
    <glyph glyph-name="uni0E25" unicode="&#xe25;" horiz-adv-x="615" 
d="M472.5 521.5q63.5 -45.5 63.5 -129.5v-392h-84v286q-13 -6 -30.5 -10t-48.5 -8l-102 -12q-141 -16 -141 -118q0 -43 26 -66q1 42 40 70.5t95 28.5q44 0 70 -20.5t26 -54.5q0 -46 -44.5 -76t-114.5 -30q-81 0 -128.5 43t-47.5 115q0 149 196 172l105 12q39 4 59.5 10
t29.5 17.5t10 33.5q-1 50 -43 77.5t-119 27.5q-129 0 -194 -78l-49 51q78 96 246 96q116 0 179.5 -45.5zM228.5 110.5q-28.5 -18.5 -28.5 -43.5q0 -16 12.5 -24.5t33.5 -8.5q36 0 65.5 19t29.5 43q0 15 -13 24t-35 9q-36 0 -64.5 -18.5z" />
    <glyph glyph-name="uni0E26" unicode="&#xe26;" horiz-adv-x="643" 
d="M502.5 508.5q63.5 -58.5 63.5 -176.5v-581h-86v581q0 84 -41.5 125t-127.5 41q-92 0 -179 -3l104 -96v-312q0 -45 -24 -71t-66 -26q-48 0 -79.5 40t-31.5 102q0 44 22 71t59 27q19 0 36 -9v181l-97 95v70h256q128 0 191.5 -58.5zM164 51q9 14 9 35q0 42 -15.5 69.5
t-39.5 27.5q-14 0 -22.5 -14.5t-8.5 -36.5q0 -41 15.5 -68t39.5 -27q13 0 22 14z" />
    <glyph glyph-name="uni0E26.short" horiz-adv-x="643" 
d="M502.5 508.5q63.5 -58.5 63.5 -176.5v-492h-86v492q0 84 -41.5 125t-127.5 41q-92 0 -179 -3l104 -96v-312q0 -45 -24 -71t-66 -26q-48 0 -79.5 40t-31.5 102q0 44 22 71t59 27q19 0 36 -9v181l-97 95v70h256q128 0 191.5 -58.5zM164 51q9 14 9 35q0 42 -15.5 69.5
t-39.5 27.5q-14 0 -22.5 -14.5t-8.5 -36.5q0 -41 15.5 -68t39.5 -27q13 0 22 14z" />
    <glyph glyph-name="uni0E27" unicode="&#xe27;" horiz-adv-x="518" 
d="M392.5 520.5q56.5 -46.5 56.5 -132.5v-254q0 -67 -42 -105.5t-118 -38.5q-48 0 -88 17.5t-63 48t-23 66.5q0 34 23 54.5t60 20.5q34 0 66 -19.5t52 -50t20 -61.5v-8q27 18 27 82v248q0 54 -34.5 82t-100.5 28q-52 0 -90 -16t-74 -56l-54 51q42 47 95 68.5t126 21.5
q105 0 161.5 -46.5zM280 48q9 8 9 22q0 19 -13.5 38.5t-34.5 32.5t-41 13q-16 0 -26 -9t-10 -23q0 -18 14.5 -37t36.5 -32t42 -13q14 0 23 8z" />
    <glyph glyph-name="uni0E28" unicode="&#xe28;" horiz-adv-x="649" 
d="M538 488q33 -44 33 -103v-385h-86v385q0 53 -42 83t-118 30q-77 0 -119 -30t-42 -83v-120q33 37 76.5 59t90.5 22q46 0 73.5 -19.5t27.5 -52.5q0 -37 -35.5 -61t-89.5 -24q-39 0 -66 15t-33 41q-24 -23 -34 -53t-10 -76v-116h-85v385q0 85 65.5 133.5t180.5 48.5
q102 0 164 -38q32 17 37 67h86q-8 -83 -74 -108zM272.5 294q-25.5 -15 -25.5 -34q0 -16 16.5 -25.5t44.5 -9.5q35 0 58.5 14t23.5 34q0 16 -16 26t-43 10q-33 0 -58.5 -15z" />
    <glyph glyph-name="uni0E29" unicode="&#xe29;" horiz-adv-x="666" 
d="M582 279v-141q0 -73 -57.5 -110.5t-167.5 -37.5t-168 37.5t-58 110.5v198q-18 -8 -34 -8q-36 0 -58 27.5t-22 73.5q0 60 31.5 99t80.5 39q41 0 65 -26t24 -71v-330q0 -39 36 -60t103 -21t103 21t36 60v100q-47 -11 -100 -11q-62 0 -97.5 18.5t-35.5 51.5q0 30 28 49.5
t71 19.5t71 -19.5t28 -48.5q0 -18 -12 -30q24 3 47 9v281h86v-230q26 29 38 69h45q-21 -76 -83 -120zM138.5 402q15.5 27 15.5 66q0 25 -8.5 39t-23.5 14q-22 0 -38 -27t-16 -65q0 -25 9 -39.5t24 -14.5q22 0 37.5 27zM404.5 275.5q17.5 10.5 17.5 24.5t-17.5 24t-43.5 10
q-25 0 -42 -10t-17 -24t17.5 -24.5t42.5 -10.5t42.5 10.5z" />
    <glyph glyph-name="uni0E2A" unicode="&#xe2a;" horiz-adv-x="615" 
d="M505 491q31 -42 31 -99v-392h-84v286q-13 -6 -30.5 -10t-48.5 -8l-102 -12q-141 -16 -141 -118q0 -43 26 -66q1 42 40 70.5t95 28.5q44 0 70 -20.5t26 -54.5q0 -46 -44.5 -76t-114.5 -30q-81 0 -128.5 43t-47.5 115q0 149 196 172l105 12q39 4 59.5 10t29.5 17.5t10 33.5
q-1 50 -43 77.5t-119 27.5q-129 0 -194 -78l-49 51q78 96 246 96q100 0 162 -34q26 17 31 63h86q-6 -78 -67 -105zM228.5 110.5q-28.5 -18.5 -28.5 -43.5q0 -16 12.5 -24.5t33.5 -8.5q36 0 65.5 19t29.5 43q0 15 -13 24t-35 9q-36 0 -64.5 -18.5z" />
    <glyph glyph-name="uni0E2B" unicode="&#xe2b;" horiz-adv-x="674" 
d="M589 291v-291h-87v280q0 41 -17.5 62.5t-51.5 21.5q-49 0 -97.5 -41t-87.5 -116q-16 -31 -21 -55.5t-5 -64.5v-87h-87v338q-17 -10 -34 -10q-36 0 -58 27.5t-22 73.5q0 60 32 99t80 39q41 0 65 -26t24 -71v-209q67 120 158 151q-44 25 -44 67q0 39 38 63.5t99 24.5
t98.5 -24.5t37.5 -63.5q0 -27 -19 -47.5t-52 -30.5q51 -34 51 -110zM142.5 402q15.5 27 15.5 66q0 25 -8.5 39t-23.5 14q-22 0 -38 -27.5t-16 -64.5q0 -25 9 -39.5t24 -14.5q22 0 37.5 27zM415.5 509.5q-22.5 -11.5 -22.5 -30.5t22 -30t58 -11q35 0 57.5 11.5t22.5 29.5
t-23 30t-57 12q-35 0 -57.5 -11.5z" />
    <glyph glyph-name="uni0E2C" unicode="&#xe2c;" horiz-adv-x="707" 
d="M696 574q-3 -98 -79 -126v-448h-98q-79 60 -149 196q-68 -137 -145 -196h-97v328h-3q-45 0 -75 39t-30 96q0 48 23.5 76t63.5 28q47 0 77.5 -41.5t30.5 -105.5v-332q40 40 82 107.5t73 138.5q32 -74 76 -144t84 -107v317q-16 -9 -39 -9q-51 0 -84 23t-33 59
q0 35 33.5 58.5t83.5 23.5q42 0 73.5 -15t41.5 -39q13 11 20.5 30.5t7.5 42.5h62zM86.5 402q15.5 -27 38.5 -27q15 0 23.5 14t8.5 38q0 39 -16 66.5t-38 27.5q-15 0 -23.5 -14.5t-8.5 -38.5q0 -39 15.5 -66zM543 444.5q20 11.5 20 28.5t-20.5 28.5t-51.5 11.5q-29 0 -49 -11
t-20 -28q0 -18 20 -29.5t51 -11.5q30 0 50 11.5z" />
    <glyph glyph-name="loChulathai.short" horiz-adv-x="707" 
d="M696 574q-3 -98 -79 -126v-448h-98q-79 60 -149 196q-68 -137 -145 -196h-97v328h-3q-45 0 -75 39t-30 96q0 48 23.5 76t63.5 28q47 0 77.5 -41.5t30.5 -105.5v-332q40 40 82 107.5t73 138.5q32 -74 76 -144t84 -107v317q-16 -9 -39 -9q-51 0 -84 23t-33 59
q0 35 33.5 58.5t83.5 23.5q42 0 73.5 -15t41.5 -39q13 11 20.5 30.5t7.5 42.5h62zM86.5 402q15.5 -27 38.5 -27q15 0 23.5 14t8.5 38q0 39 -16 66.5t-38 27.5q-15 0 -23.5 -14.5t-8.5 -38.5q0 -39 15.5 -66zM543 444.5q20 11.5 20 28.5t-20.5 28.5t-51.5 11.5q-29 0 -49 -11
t-20 -28q0 -18 20 -29.5t51 -11.5q30 0 50 11.5z" />
    <glyph glyph-name="uni0E2D" unicode="&#xe2d;" horiz-adv-x="609" 
d="M474 522q66 -45 66 -128v-241q0 -77 -66 -120t-181 -43t-176.5 47.5t-61.5 134.5q0 56 30 102.5t79 73.5t104 27q42 0 66.5 -18.5t24.5 -52.5q0 -44 -41 -73.5t-101 -29.5q-26 0 -44.5 8.5t-26.5 24.5q-15 -24 -15 -58q0 -58 37.5 -87.5t120.5 -29.5q75 0 120 25.5
t45 68.5v241q0 50 -44.5 77t-126.5 27q-63 0 -109.5 -15.5t-80.5 -49.5l-46 54q77 80 241 80q120 0 186 -45zM202.5 316.5q-27.5 -17.5 -27.5 -42.5q0 -14 11.5 -23t32.5 -9q35 0 65 18.5t30 42.5q0 31 -47 31q-37 0 -64.5 -17.5z" />
    <glyph glyph-name="uni0E2E" unicode="&#xe2e;" horiz-adv-x="601" 
d="M511 472q21 -30 21 -67v-252q0 -78 -66 -120.5t-182 -42.5q-113 0 -175 43t-62 121q0 51 30 94.5t79.5 69t103.5 25.5q42 0 66.5 -18.5t24.5 -51.5q0 -43 -41.5 -72t-100.5 -29q-27 0 -46 8.5t-27 24.5q-14 -20 -14 -47q0 -99 158 -99q75 0 120 25.5t45 68.5v252
q0 7 -2 19q-77 -36 -180 -36q-87 0 -148.5 23t-61.5 65q0 41 56 66t149 25q59 0 111 -12t89 -35q17 28 17 62h84q-3 -63 -48 -110zM412 475q-25 21 -66 32t-91 11q-58 0 -94 -11t-36 -30q0 -17 36.5 -28.5t91.5 -11.5q97 0 159 38zM194 286q-28 -18 -28 -43q0 -14 12 -23
t33 -9q36 0 66 18.5t30 42.5q0 15 -13 23.5t-35 8.5q-37 0 -65 -18z" />
    <glyph glyph-name="uni0E30" unicode="&#xe30;" horiz-adv-x="473" 
d="M84 365q-40 23 -40 64q0 36 32 59t82 23q49 0 81 -23t32 -58q0 -17 -9 -34q38 9 61 39t28 77h80q-7 -82 -67.5 -126t-169.5 -44q-70 0 -110 23zM111 457.5q-19 -11.5 -19 -27.5t19 -27.5t46 -11.5q28 0 47 11.5t19 27.5t-19 27.5t-47 11.5q-27 0 -46 -11.5zM322.5 139
q22.5 30 28.5 77h80q-7 -82 -68 -126t-170 -44q-69 0 -109 23t-40 64q0 36 32.5 59.5t81.5 23.5t81 -23.5t32 -58.5q0 -17 -9 -34q38 9 60.5 39zM204 106.5q19 11.5 19 27.5q0 17 -19 28t-47 11t-46.5 -11t-18.5 -28q0 -16 19 -27.5t46 -11.5q28 0 47 11.5z" />
    <glyph glyph-name="uni0E32" unicode="&#xe32;" horiz-adv-x="474" 
d="M318 388q0 53 -29 81.5t-84 28.5q-43 0 -75.5 -16t-68.5 -56l-54 51q43 47 89.5 68.5t109.5 21.5q95 0 147 -46.5t52 -132.5v-388h-87v388z" />
    <glyph glyph-name="uni0E33" unicode="&#xe33;" horiz-adv-x="474" 
d="M-197.5 673.5q-28.5 27.5 -28.5 69.5q0 43 28.5 70t73.5 27q46 0 74.5 -27t28.5 -70q0 -42 -29 -69.5t-74 -27.5t-73.5 27.5zM-87.5 706.5q14.5 14.5 14.5 36.5q0 23 -14.5 37t-36.5 14t-36 -14t-14 -37t14 -37t36 -14t36.5 14.5zM318 388q0 53 -29 81.5t-84 28.5
q-43 0 -75.5 -16t-68.5 -56l-54 51q43 47 89.5 68.5t109.5 21.5q95 0 147 -46.5t52 -132.5v-388h-87v388z" />
    <glyph glyph-name="uni0E40" unicode="&#xe40;" horiz-adv-x="299" 
d="M257 201q22 -28 22 -74q0 -59 -32 -98t-80 -39q-41 0 -64.5 26t-23.5 71v473h86v-339q18 8 34 8q36 0 58 -28zM212 64q16 27 16 65q0 24 -9 38.5t-24 14.5q-22 0 -37.5 -27.5t-15.5 -66.5q0 -23 8.5 -37t23.5 -14q22 0 38 27z" />
    <glyph glyph-name="uni0E41" unicode="&#xe41;" horiz-adv-x="571" 
d="M257 201q22 -28 22 -74q0 -59 -32 -98t-80 -39q-41 0 -64.5 26t-23.5 71v473h86v-339q18 8 34 8q36 0 58 -28zM529 201q22 -28 22 -74q0 -59 -31.5 -98t-80.5 -39q-41 0 -64.5 26t-23.5 71v473h87v-339q16 8 33 8q36 0 58 -28zM212 64q16 27 16 65q0 24 -9 38.5t-24 14.5
q-22 0 -37.5 -27.5t-15.5 -66.5q0 -23 8.5 -37t23.5 -14q22 0 38 27zM484 64q16 27 16 65q0 24 -9 38.5t-23 14.5q-22 0 -38 -27.5t-16 -66.5q0 -23 8.5 -37t23.5 -14q22 0 38 27z" />
    <glyph glyph-name="uni0E42" unicode="&#xe42;" horiz-adv-x="348" 
d="M73 907q-38 -15 -38 -36q0 -10 12.5 -18.5t35.5 -20.5t32 -17q39 -20 57.5 -37.5t24.5 -39.5t6 -60v-457q18 8 34 8q36 0 58 -27.5t22 -73.5q0 -60 -32 -99t-80 -39q-41 0 -64.5 26t-23.5 71v596q0 21 -4.5 33t-17.5 22t-44 28q-54 31 -76 52.5t-22 51.5q0 35 28 62.5
t77 42.5t111 15q103 0 205 -43l-20 -68q-46 21 -95 32t-93 11q-55 0 -93 -15zM195.5 155q-15.5 -27 -15.5 -66q0 -24 8.5 -38t23.5 -14q22 0 38 27t16 65q0 24 -9 38.5t-24 14.5q-22 0 -37.5 -27z" />
    </font>
</defs>
</svg>
